<?xml version="1.0" standalone="no"?>
<!DOCTYPE svg PUBLIC "-//W3C//DTD SVG 1.1//EN" "http://www.w3.org/Graphics/SVG/1.1/DTD/svg11.dtd" >
<svg>
<metadata>
Created by FontForge 20090622 at Fri Mar 29 09:49:01 2019
 By deploy user
Copyright (c) 2017, Aalgolab
</metadata>
<defs>
<font id="Aalfons-Bold" horiz-adv-x="0" >
  <font-face 
    font-family="Aalfons"
    font-weight="700"
    font-stretch="normal"
    units-per-em="1000"
    panose-1="2 0 8 3 0 0 0 0 0 0"
    ascent="800"
    descent="-200"
    x-height="473"
    cap-height="657"
    bbox="-948 -434 1429 1047"
    underline-thickness="50"
    underline-position="-100"
    unicode-range="U+0020-U+10FFFD"
  />
<missing-glyph horiz-adv-x="256" 
 />
    <glyph glyph-name="f_f" unicode="ff" horiz-adv-x="715" 
d="M13 473h81q0 60 10.5 96t45.5 75q35 36 73 51.5t96 15.5q136 0 136 -86q0 -28 -17.5 -42.5t-40.5 -14.5t-35.5 11t-26.5 41q-13 26 -22.5 34t-24.5 8q-28 0 -39.5 -24t-11.5 -86v-79h210q0 65 10 102t46 75q34 36 72.5 51.5t96.5 15.5q136 0 136 -86q0 -28 -17.5 -42.5
t-40.5 -14.5t-35.5 11t-26.5 41q-13 26 -22.5 34t-24.5 8q-29 0 -40 -24.5t-11 -83.5v-87h125v-61h-125v-278q0 -60 19 -77t84 -17v-40h-334v40q57 0 72.5 16t15.5 78v278h-210v-282q0 -57 17 -73.5t66 -16.5v-40h-314v40q55 0 71.5 16t16.5 74v282h-81v61z" />
    <glyph glyph-name="f_i" unicode="fi" horiz-adv-x="679" 
d="M664 40v-40h-293v40q48 0 62 13.5t14 56.5v255q0 27 -10 36.5t-30 10.5h-170v-282q0 -57 17 -73.5t66 -16.5v-40h-314v40q55 0 71.5 16t16.5 74v282h-81v61h81q0 64 10.5 101t45.5 76q66 67 206 67q178 0 178 -90q0 -33 -18.5 -47.5t-41.5 -14.5q-45 0 -72 63
q-19 42 -70 42q-47 0 -71 -25t-24 -87v-85h160l123 9h67v-369q0 -45 14 -59t63 -14z" />
    <glyph glyph-name="f_l" unicode="fl" horiz-adv-x="676" 
d="M664 40v-40h-296v40q47 0 60 14t13 58v486q-22 71 -100 71q-54 0 -79 -29.5t-25 -109.5v-57h111v-61h-111v-282q0 -57 17 -73.5t66 -16.5v-40h-314v40q55 0 71.5 16t16.5 74v282h-81v61h81q0 65 10 102t46 75q63 67 197 67q47 0 91.5 -13t67.5 -29l29 31h49v-594
q0 -45 14 -58.5t66 -13.5z" />
    <glyph glyph-name="f_f_i" unicode="ffi" horiz-adv-x="1032" 
d="M1017 40v-40h-293v40q48 0 62 13.5t14 56.5v255q0 31 -12 39t-39 8h-159v-282q0 -57 17 -73.5t66 -16.5v-40h-314v40q55 0 71.5 16t16.5 74v282h-210v-282q0 -57 17 -73.5t66 -16.5v-40h-314v40q55 0 71.5 16t16.5 74v282h-81v61h81q0 60 10.5 96t45.5 75q35 36 73 51.5
t96 15.5q136 0 136 -86q0 -28 -17.5 -42.5t-40.5 -14.5t-35.5 11t-26.5 41q-13 26 -22.5 34t-24.5 8q-28 0 -39.5 -24t-11.5 -86v-79h210q0 64 10.5 101t45.5 76q66 67 206 67q178 0 178 -90q0 -33 -18.5 -47.5t-41.5 -14.5q-45 0 -72 63q-19 42 -70 42q-47 0 -71 -25
t-24 -87v-85h160l123 9h67v-369q0 -45 14 -59t63 -14z" />
    <glyph glyph-name="f_f_l" unicode="ffl" horiz-adv-x="1029" 
d="M1017 40v-40h-296v40q47 0 60 14t13 58v486q-22 71 -100 71q-54 0 -79 -29.5t-25 -109.5v-57h111v-61h-111v-282q0 -57 17 -73.5t66 -16.5v-40h-314v40q55 0 71.5 16t16.5 74v282h-210v-282q0 -57 17 -73.5t66 -16.5v-40h-314v40q55 0 71.5 16t16.5 74v282h-81v61h81
q0 60 10.5 96t45.5 75q35 36 73 51.5t96 15.5q136 0 136 -86q0 -28 -17.5 -42.5t-40.5 -14.5t-35.5 11t-26.5 41q-13 26 -22.5 34t-24.5 8q-28 0 -39.5 -24t-11.5 -86v-79h210q0 65 10 102t46 75q63 67 197 67q46 0 91 -13t68 -29l29 31h49v-594q0 -45 14 -58.5t66 -13.5z
" />
    <glyph glyph-name="f_b" unicode="fb" horiz-adv-x="940" 
d="M13 473h81q0 65 10 102t46 75q63 67 197 67q47 0 91.5 -13t67.5 -29l29 31h49v-304h4q73 83 152 83q81 0 124 -56.5t43 -164.5q0 -139 -74 -207t-202 -68q-99 0 -190 41v568q-22 71 -100 71q-54 0 -79 -29.5t-25 -109.5v-57h111v-61h-111v-282q0 -57 17 -73.5t66 -16.5
v-40h-314v40q55 0 71.5 16t16.5 74v282h-81v61zM584 343v-257q25 -45 76 -45q92 0 92 196q0 155 -75 155q-47 0 -93 -49z" />
    <glyph glyph-name="f_f_b" unicode="ffb" horiz-adv-x="1293" 
d="M937 706v-304h4q73 83 152 83q81 0 124 -56.5t43 -164.5q0 -139 -74 -207t-202 -68q-99 0 -190 41v568q-22 71 -100 71q-54 0 -79 -29.5t-25 -109.5v-57h111v-61h-111v-282q0 -57 17 -73.5t66 -16.5v-40h-314v40q55 0 71.5 16t16.5 74v282h-210v-282q0 -57 17 -73.5
t66 -16.5v-40h-314v40q55 0 71.5 16t16.5 74v282h-81v61h81q0 60 10.5 96t45.5 75q35 36 73 51.5t96 15.5q136 0 136 -86q0 -28 -17.5 -42.5t-40.5 -14.5t-35.5 11t-26.5 41q-13 26 -22.5 34t-24.5 8q-28 0 -39.5 -24t-11.5 -86v-79h210q0 65 10 102t46 75q63 67 197 67
q46 0 91 -13t68 -29l29 31h49zM937 343v-257q25 -45 76 -45q92 0 92 196q0 155 -75 155q-47 0 -93 -49z" />
    <glyph glyph-name="f_f_h" unicode="ffh" horiz-adv-x="1372" 
d="M937 346v-238q0 -40 12 -54t60 -14v-40h-285v40q42 0 56 12t14 52v494q-22 71 -100 71q-54 0 -79 -29.5t-25 -109.5v-57h111v-61h-111v-282q0 -57 17 -73.5t66 -16.5v-40h-314v40q55 0 71.5 16t16.5 74v282h-210v-282q0 -57 17 -73.5t66 -16.5v-40h-314v40q55 0 71.5 16
t16.5 74v282h-81v61h81q0 60 10.5 96t45.5 75q35 36 73 51.5t96 15.5q136 0 136 -86q0 -28 -17.5 -42.5t-40.5 -14.5t-35.5 11t-26.5 41q-13 26 -22.5 34t-24.5 8q-28 0 -39.5 -24t-11.5 -86v-79h210q0 65 10 102t46 75q63 67 197 67q46 0 91 -13t68 -29l29 31h49v-305h4
q44 45 77.5 64.5t77.5 19.5q78 0 118.5 -48.5t40.5 -141.5v-183q0 -42 13.5 -57t56.5 -15v-40h-278v40q44 0 54.5 14t10.5 55v138q0 28 -1 44.5t-5 37.5t-12 32.5t-23 19.5t-36 8q-46 0 -98 -43z" />
    <glyph glyph-name="f_f_j" unicode="ffj" horiz-adv-x="1017" 
d="M941 482v-484q0 -116 -58 -174.5t-151 -58.5q-62 0 -99.5 22.5t-37.5 70.5q0 24 15.5 39.5t38.5 15.5t39.5 -14.5t23.5 -31.5t19 -31.5t27 -14.5q16 0 24.5 7.5t12.5 30t5 45t1 71.5v385q0 29 -8 39.5t-30 12.5h-173v-282q0 -57 17 -73.5t66 -16.5v-40h-314v40
q55 0 71.5 16t16.5 74v282h-210v-282q0 -57 17 -73.5t66 -16.5v-40h-314v40q55 0 71.5 16t16.5 74v282h-81v61h81q0 60 10.5 96t45.5 75q35 36 73 51.5t96 15.5q136 0 136 -86q0 -28 -17.5 -42.5t-40.5 -14.5t-35.5 11t-26.5 41q-13 26 -22.5 34t-24.5 8q-28 0 -39.5 -24
t-11.5 -86v-79h210q0 64 10.5 101t45.5 76q66 67 206 67q178 0 178 -90q0 -33 -18.5 -47.5t-41.5 -14.5q-45 0 -72 63q-19 42 -70 42q-47 0 -71 -25t-24 -87v-85h160l123 9h68z" />
    <glyph glyph-name="f_f_k" unicode="ffk" horiz-adv-x="1315" 
d="M1317 0h-262v40q21 0 27.5 3.5t6.5 11.5q0 11 -11 23l-132 151h-9v-126q0 -39 14 -51t58 -12v-40h-289v40q47 0 60.5 13t13.5 56v489q-22 71 -100 71q-54 0 -79 -29.5t-25 -109.5v-57h111v-61h-111v-282q0 -57 17 -73.5t66 -16.5v-40h-314v40q55 0 71.5 16t16.5 74v282
h-210v-282q0 -57 17 -73.5t66 -16.5v-40h-314v40q55 0 71.5 16t16.5 74v282h-81v61h81q0 60 10.5 96t45.5 75q35 36 73 51.5t96 15.5q136 0 136 -86q0 -28 -17.5 -42.5t-40.5 -14.5t-35.5 11t-26.5 41q-13 26 -22.5 34t-24.5 8q-28 0 -39.5 -24t-11.5 -86v-79h210
q0 65 10 102t46 75q63 67 197 67q46 0 91 -13t68 -29l29 31h49v-440h8l106 116q14 16 14 29q0 12 -10 17t-40 5v40h260v-40q-39 0 -77.5 -21t-118.5 -86l-39 -32l202 -215q24 -26 38 -32.5t37 -6.5v-40z" />
    <glyph glyph-name="f_h" unicode="fh" horiz-adv-x="989" 
d="M584 346v-238q0 -40 12 -54t60 -14v-40h-285v40q42 0 56 12t14 52v494q-22 71 -100 71q-54 0 -79 -29.5t-25 -109.5v-57h111v-61h-111v-282q0 -57 17 -73.5t66 -16.5v-40h-314v40q55 0 71.5 16t16.5 74v282h-81v61h81q0 65 10 102t46 75q63 67 197 67q47 0 91.5 -13
t67.5 -29l29 31h49v-305h4q44 45 77.5 64.5t77.5 19.5q78 0 118.5 -48.5t40.5 -141.5v-183q0 -42 13.5 -57t56.5 -15v-40h-278v40q44 0 54.5 14t10.5 55v138q0 28 -1 44.5t-5 37.5t-12 32.5t-23 19.5t-36 8q-46 0 -98 -43z" />
    <glyph glyph-name="f_j" unicode="fj" horiz-adv-x="664" 
d="M588 482v-484q0 -116 -58 -174.5t-151 -58.5q-62 0 -99.5 22.5t-37.5 70.5q0 24 15 39.5t39 15.5q23 0 39.5 -14.5t23.5 -31.5t19 -31.5t27 -14.5q16 0 24.5 7.5t12.5 30t5 45t1 71.5v385q0 29 -8.5 39.5t-30.5 12.5h-172v-282q0 -57 17 -73.5t66 -16.5v-40h-314v40
q55 0 71.5 16t16.5 74v282h-81v61h81q0 64 10.5 101t45.5 76q66 67 206 67q178 0 178 -90q0 -33 -18.5 -47.5t-41.5 -14.5q-45 0 -72 63q-19 42 -70 42q-47 0 -71 -25t-24 -87v-85h160l123 9h68z" />
    <glyph glyph-name="f_k" unicode="fk" horiz-adv-x="962" 
d="M964 0h-262v40q21 0 27.5 3.5t6.5 11.5q0 11 -11 23l-132 151h-9v-126q0 -39 14 -51t58 -12v-40h-289v40q47 0 60.5 13t13.5 56v489q-22 71 -100 71q-54 0 -79 -29.5t-25 -109.5v-57h111v-61h-111v-282q0 -57 17 -73.5t66 -16.5v-40h-314v40q55 0 71.5 16t16.5 74v282
h-81v61h81q0 65 10 102t46 75q63 67 197 67q47 0 91.5 -13t67.5 -29l29 31h49v-440h8l106 116q14 16 14 29q0 12 -10 17t-40 5v40h260v-40q-39 0 -77.5 -21t-118.5 -86l-39 -32l202 -215q24 -26 38 -32.5t37 -6.5v-40z" />
    <glyph glyph-name=".notdef" horiz-adv-x="256" 
 />
    <glyph glyph-name=".null" 
 />
    <glyph glyph-name="nonmarkingreturn" horiz-adv-x="333" 
 />
    <glyph glyph-name="space" unicode=" " horiz-adv-x="256" 
 />
    <glyph glyph-name="exclam" unicode="!" horiz-adv-x="250" 
d="M106 170l-30 368q-4 56 -4 65q0 66 53 66t53 -68q0 -29 -4 -63l-32 -368h-36zM184 49q0 -24 -16 -40.5t-44 -16.5q-19 0 -32 7.5t-19.5 20.5t-6.5 30q0 26 16 43.5t42 17.5q19 0 33 -8.5t20.5 -22.5t6.5 -31z" />
    <glyph glyph-name="quotedbl" unicode="&#x22;" horiz-adv-x="347" 
d="M52 505v201h118v-47l-57 -154h-61zM206 505v201h118v-47l-57 -154h-61z" />
    <glyph glyph-name="numbersign" unicode="#" horiz-adv-x="573" 
d="M556 379h-121l-18 -111h118v-72h-128l-25 -170h-81l28 170h-126l-28 -170h-80l29 170h-108v72h117l19 111h-112v73h123l29 174h81l-30 -174h123l28 173h81l-29 -173h110v-73zM355 379h-123l-19 -111h125z" />
    <glyph glyph-name="dollar" unicode="$" horiz-adv-x="495" 
d="M220 -93v87q-49 1 -91 10.5t-56.5 16t-40.5 19.5v167h47q22 -91 51.5 -125t89.5 -35v217q-38 17 -67 33.5t-59.5 42.5t-47 62t-16.5 79q0 73 50.5 114t139.5 45v66h54v-67q48 -6 96 -22t64 -29v-147h-45q-18 73 -45.5 108.5t-69.5 43.5v-196q46 -21 73 -36t60.5 -42
t50 -63t16.5 -81q0 -78 -54 -124.5t-146 -54.5v-89h-54zM145 522q0 -58 75 -99v171q-75 -9 -75 -72zM341 131q0 62 -67 104v-182q67 20 67 78z" />
    <glyph glyph-name="percent" unicode="%" horiz-adv-x="769" 
d="M299 513q0 46 -15 68.5t-39 22.5q-33 0 -55 -28t-30 -64t-8 -77q0 -46 12 -63.5t36 -17.5q41 0 70 44t29 115zM729 189q0 -104 -51 -156.5t-131 -52.5q-58 0 -90.5 31t-32.5 92q0 91 51 149.5t143 58.5q49 0 80 -32t31 -90zM684 188q0 43 -14.5 64t-38.5 21
q-50 0 -73 -49.5t-23 -120.5q0 -79 47 -79q44 0 73 45.5t29 118.5zM631 668l-407 -689h-78l359 596h-5q-48 -32 -95 -32q-31 0 -66 17l-2 -2q8 -24 8 -49q0 -84 -48 -142.5t-136 -58.5q-57 0 -89 33.5t-32 92.5q0 96 53 150.5t137 54.5q36 0 83 -27.5t87 -27.5q41 0 72 14.5
t88 69.5h71z" />
    <glyph glyph-name="ampersand" unicode="&#x26;" horiz-adv-x="736" 
d="M708 153l27 -13q-19 -68 -67 -112t-105 -44q-46 0 -81.5 19t-87.5 71q-57 -53 -96 -71.5t-100 -18.5q-90 0 -138 41t-48 117q0 69 43.5 120.5t144.5 98.5q-59 112 -59 162q0 64 49.5 101.5t129.5 37.5q76 0 122.5 -31t46.5 -90q0 -53 -35.5 -91t-121.5 -75
q60 -96 127 -177q41 60 56 88.5t15 49.5q0 20 -10.5 27.5t-42.5 7.5v38h210v-38q-36 0 -54.5 -10t-35.5 -37q-47 -76 -110 -157q41 -40 65 -55t58 -15q60 0 98 56zM312 410q34 19 54 58.5t20 79.5q0 34 -15 56.5t-44 22.5q-67 0 -67 -67q0 -57 52 -150zM364 108
q-83 109 -144 219q-41 -28 -55 -91.5t11.5 -117.5t87.5 -54q50 0 100 44z" />
    <glyph glyph-name="quotesingle" unicode="'" horiz-adv-x="193" 
d="M52 505v201h118v-47l-57 -154h-61z" />
    <glyph glyph-name="parenleft" unicode="(" horiz-adv-x="403" 
d="M70 274q0 161 73 277t207 179l25 -36q-91 -73 -132 -172.5t-41 -247.5q0 -149 42.5 -250t133.5 -174l-28 -36q-134 63 -207 180.5t-73 279.5z" />
    <glyph glyph-name="parenright" unicode=")" horiz-adv-x="403" 
d="M333 274q0 -162 -73 -279.5t-207 -180.5l-28 36q91 73 133.5 174t42.5 250q0 148 -41 247.5t-132 172.5l25 36q134 -63 207 -179t73 -277z" />
    <glyph glyph-name="asterisk" unicode="*" horiz-adv-x="425" 
d="M238 542l2 -2q11 8 31.5 31t38.5 38.5t33 15.5q18 0 32.5 -14.5t14.5 -33.5q0 -25 -20 -36.5t-58 -18.5t-55 -15v-3q12 -7 50 -16.5t60.5 -23t22.5 -37.5q0 -18 -13.5 -35.5t-32.5 -17.5q-16 0 -35 17t-39.5 42t-29.5 33l-3 -2q0 -12 11.5 -53t11.5 -61q0 -21 -13.5 -33
t-32.5 -12t-33 12t-14 34q0 19 10.5 59t10.5 52l-3 2q-12 -9 -32 -32t-37.5 -38.5t-32.5 -15.5q-19 0 -33.5 15t-14.5 35q0 24 23.5 37t60 21.5t48.5 15.5v4q-8 4 -53 14q-28 6 -42 10.5t-25 15t-11 27.5q0 20 13 36t32 16q21 0 58 -39.5t47 -45.5l2 2q0 18 -10.5 54.5
t-10.5 56.5q0 22 14 34t33 12t32.5 -11.5t13.5 -33.5q0 -19 -11 -56.5t-11 -55.5z" />
    <glyph glyph-name="plus" unicode="+" horiz-adv-x="752" 
d="M686 212h-262v-265h-96v265h-262v92h262v265h96v-265h262v-92z" />
    <glyph glyph-name="comma" unicode="," horiz-adv-x="250" 
d="M70 -142l-12 25q18 8 29.5 15t25.5 20.5t21.5 35t7.5 50.5q-17 -6 -32 -6q-27 0 -40.5 15t-13.5 39q0 25 16.5 42t45.5 17q37 0 56.5 -23t19.5 -65q0 -23 -5 -44t-11.5 -35t-19.5 -28t-21 -21t-25 -16.5t-21.5 -11.5z" />
    <glyph glyph-name="hyphen" unicode="-" horiz-adv-x="315" 
d="M275 209h-235v85h235v-85z" />
    <glyph glyph-name="period" unicode="." horiz-adv-x="250" 
d="M184 49q0 -24 -16 -40.5t-44 -16.5t-43 16t-15 42t16 43.5t43 17.5t43 -18t16 -44z" />
    <glyph glyph-name="slash" unicode="/" horiz-adv-x="414" 
d="M379 709l-260 -798h-84l261 798h83z" />
    <glyph glyph-name="zero" unicode="0" horiz-adv-x="495" 
d="M469 317q0 -148 -54 -238t-167 -90q-116 0 -169 89.5t-53 241.5q0 154 57.5 238t166.5 84q101 0 160 -83.5t59 -241.5zM318 311q0 287 -71 287q-72 0 -72 -283q0 -280 72 -280q71 0 71 276z" />
    <glyph glyph-name="one" unicode="1" horiz-adv-x="495" 
d="M461 0h-417v43q72 0 103 15t31 52v388q0 27 -7.5 38t-25.5 11q-52 0 -107 -12v49l222 55h66v-529q0 -36 32.5 -51.5t102.5 -15.5v-43z" />
    <glyph glyph-name="two" unicode="2" horiz-adv-x="495" 
d="M463 200l-32 -200h-404v67l130 132q75 77 106.5 133t31.5 133q0 103 -94 103q-45 0 -75.5 -18.5t-54.5 -68.5l-44 16q27 74 84.5 113t138.5 39q87 0 142.5 -47t55.5 -122q0 -70 -41.5 -128t-137.5 -137l-116 -96v-8l63 7h115q38 0 54 16.5t35 65.5h43z" />
    <glyph glyph-name="three" unicode="3" horiz-adv-x="495" 
d="M68 498l-35 20q65 135 203 135q85 0 135 -39.5t50 -100.5q0 -55 -30 -85t-94 -56v-8q161 -55 161 -176q0 -98 -83.5 -150.5t-211.5 -52.5q-69 0 -98 16.5t-29 49.5q0 25 14 42.5t40 17.5q27 0 71 -35.5t72 -35.5q83 0 83 130q0 66 -40 102t-119 36h-19v63h22q48 0 84 33
t36 84q0 37 -23.5 58.5t-64.5 21.5q-75 0 -124 -70z" />
    <glyph glyph-name="four" unicode="4" horiz-adv-x="495" 
d="M483 122h-82v-122h-145v122h-241v110l269 413h117v-406h82v-117zM256 239v252h-3l-158 -248v-4h161z" />
    <glyph glyph-name="five" unicode="5" horiz-adv-x="495" 
d="M426 519h-265l-21 -94q42 0 82.5 -4.5t86.5 -18t80 -35t56.5 -60t22.5 -88.5q0 -62 -26.5 -109t-72 -73.5t-101 -39.5t-119.5 -13q-70 0 -98.5 15t-28.5 48q0 26 14 45t40 19t70 -35t76 -35q58 0 86 29.5t28 102.5q0 71 -53.5 96.5t-163.5 29.5q-26 1 -43 1l-17 27
l71 303h314z" />
    <glyph glyph-name="six" unicode="6" horiz-adv-x="495" 
d="M449 646l5 -47q-108 -16 -181.5 -77.5t-95.5 -163.5l11 -1q31 31 56.5 44.5t60.5 13.5q77 0 122.5 -53t45.5 -149q0 -227 -212 -227q-118 0 -176.5 71.5t-58.5 193.5q0 92 34 166.5t93 123t134.5 75.5t161.5 30zM326 195q0 64 -21 104.5t-61 40.5q-67 0 -67 -104
q0 -93 22 -148t65 -55q32 0 47 37t15 125z" />
    <glyph glyph-name="seven" unicode="7" horiz-adv-x="493" 
d="M470 559l-237 -567h-127l268 517h-214q-41 0 -55.5 -12.5t-35.5 -62.5l-41 3l40 193h402v-71z" />
    <glyph glyph-name="eight" unicode="8" horiz-adv-x="495" 
d="M472 160q0 -84 -66 -129t-170 -45q-96 0 -154.5 40.5t-58.5 115.5q0 54 32 87t112 81v3q-75 50 -101.5 90t-26.5 91q0 72 59.5 113.5t155.5 41.5q82 0 136 -38t54 -97q0 -51 -28.5 -85t-98.5 -68v-3q90 -57 122.5 -97t32.5 -101zM329 513q0 43 -19.5 67t-51.5 24
q-38 0 -61 -23t-23 -64q0 -37 23 -66.5t79 -64.5q53 56 53 127zM203 286q-5 -8 -17.5 -24.5t-18 -25.5t-13 -23.5t-10.5 -29.5t-3 -33q0 -60 26.5 -90.5t72.5 -30.5q35 0 63 24.5t28 67.5t-26 75.5t-102 89.5z" />
    <glyph glyph-name="nine" unicode="9" horiz-adv-x="495" 
d="M62 -13l-2 44q234 28 264 242l-9 1q-32 -28 -58 -41t-59 -13q-79 0 -125.5 57t-46.5 155q0 102 54.5 158t157.5 56q116 0 173.5 -76t57.5 -196q0 -98 -32.5 -173.5t-89 -121t-128.5 -68.5t-157 -24zM173 438q0 -65 21 -103.5t61 -38.5q64 0 64 102q0 202 -82 202
q-33 0 -48.5 -37t-15.5 -125z" />
    <glyph glyph-name="colon" unicode=":" horiz-adv-x="250" 
d="M184 423q0 -24 -16 -40.5t-44 -16.5t-43 16t-15 42t16 43.5t43 17.5t43 -18t16 -44zM184 49q0 -24 -16 -40.5t-44 -16.5t-43 16t-15 42t16 43.5t43 17.5t43 -18t16 -44z" />
    <glyph glyph-name="semicolon" unicode=";" horiz-adv-x="250" 
d="M70 -142l-12 25q18 8 29.5 15t25.5 20.5t21.5 35t7.5 50.5q-17 -6 -32 -6q-27 0 -40.5 15t-13.5 39q0 25 16.5 42t45.5 17q37 0 56.5 -23t19.5 -65q0 -23 -5 -44t-11.5 -35t-19.5 -28t-21 -21t-25 -16.5t-21.5 -11.5zM178 423q0 -24 -16 -40.5t-44 -16.5q-20 0 -33 7.5
t-19 20.5t-6 30q0 26 16 43.5t42 17.5q28 0 44 -18t16 -44z" />
    <glyph glyph-name="less" unicode="&#x3c;" horiz-adv-x="733" 
d="M664 -43l-603 284v36l603 288v-92l-449 -213l449 -213v-90z" />
    <glyph glyph-name="equal" unicode="=" horiz-adv-x="752" 
d="M686 330h-620v92h620v-92zM686 93h-620v91h620v-91z" />
    <glyph glyph-name="greater" unicode="&#x3e;" horiz-adv-x="733" 
d="M672 241l-603 -284v90l449 213l-449 213v92l603 -288v-36z" />
    <glyph glyph-name="question" unicode="?" horiz-adv-x="461" 
d="M253 193h-62v27q0 43 14 79.5t30.5 60t30.5 64.5t14 93q0 56 -21.5 83t-57.5 27q-30 0 -46.5 -14t-16.5 -38q0 -16 10.5 -34t10.5 -38q0 -29 -17.5 -42.5t-42.5 -13.5q-32 0 -52.5 22t-20.5 62q0 63 56 102t145 39q54 0 98 -13.5t74.5 -49t30.5 -89.5q0 -45 -18 -83.5
t-44 -65.5t-52.5 -51.5t-44.5 -52.5t-18 -58v-16zM301 62q-1 -70 -77 -70q-78 0 -78 71q0 76 78 76q37 0 57.5 -20.5t19.5 -56.5z" />
    <glyph glyph-name="at" unicode="@" horiz-adv-x="937" 
d="M663 439l-4 -321q0 -53 33 -53q103 0 103 201q0 138 -85.5 219t-225.5 81q-153 0 -244.5 -90t-91.5 -250q0 -167 91.5 -257.5t255.5 -90.5q117 0 228 53l20 -42q-123 -75 -255 -75q-206 0 -319.5 106t-113.5 299q0 182 118.5 294.5t311.5 112.5q183 0 290 -100t107 -260
q0 -144 -57.5 -210.5t-158.5 -66.5q-62 0 -87 20.5t-32 71.5h-7q-41 -93 -139 -93q-66 0 -112 49.5t-46 159.5q0 112 52.5 180t154.5 68q61 0 102 -49h10l37 43h64zM521 137l2 177q-5 35 -20 59t-38 24q-29 0 -47.5 -29.5t-25.5 -69t-7 -86.5q0 -144 62 -144q54 0 74 69z
" />
    <glyph glyph-name="A" unicode="A" horiz-adv-x="749" 
d="M740 0h-321v43q59 0 59 32q0 25 -20 76l-23 60h-230l-29 -73q-14 -40 -14 -58q0 -23 14.5 -30t53.5 -7v-43h-228v43q38 0 58 19t43 78l217 522h105l216 -524q21 -50 43.5 -72.5t55.5 -22.5v-43zM417 263l-89 249h-4l-101 -249h194z" />
    <glyph glyph-name="B" unicode="B" horiz-adv-x="672" 
d="M465 354v-6q177 -25 177 -171q0 -87 -65 -132t-188 -45h-354v43q60 0 76.5 16t16.5 75v393q0 56 -17 71t-76 15v44h334q131 0 186.5 -38.5t55.5 -110.5q0 -63 -38 -99t-108 -55zM277 370h49q72 0 98.5 26t26.5 92q0 61 -27 87.5t-100 26.5q-18 0 -47 -3v-229zM277 317
v-264q29 -3 56 -3q73 0 107.5 23.5t34.5 104.5q0 44 -11 72.5t-32 42.5t-43.5 19t-53.5 5h-58z" />
    <glyph glyph-name="C" unicode="C" horiz-adv-x="685" 
d="M620 185l32 -28q-29 -42 -52 -67.5t-57.5 -51.5t-79 -38t-102.5 -12q-158 0 -237 90.5t-79 242.5q0 168 92 258t247 90q62 0 110 -16.5t54 -16.5q23 0 32 33h43v-246h-48q-41 192 -193 192q-180 0 -180 -268q0 -138 50.5 -200t157.5 -62q70 0 116.5 24t93.5 76z" />
    <glyph glyph-name="D" unicode="D" horiz-adv-x="766" 
d="M35 657h288q65 0 118.5 -7.5t107.5 -28.5t90.5 -55.5t59 -92t22.5 -133.5q0 -340 -394 -340h-292v43q61 0 77 16t16 78v392q0 53 -18.5 67.5t-74.5 14.5v46zM276 599v-541q16 -1 46 -1q60 0 101.5 11.5t74.5 41t49 84t16 135.5q0 271 -248 271q-22 0 -39 -1z" />
    <glyph glyph-name="E" unicode="E" horiz-adv-x="660" 
d="M632 197l-24 -197h-573v43q54 0 73.5 15t19.5 68v397q0 57 -16 73.5t-77 16.5v44h562l6 -181h-51q-12 71 -38 94.5t-106 23.5h-132v-230h89q75 0 92 13.5t17 71.5h47v-231h-47q0 63 -17 77.5t-92 14.5h-89v-249h118q97 0 131.5 26t58.5 110h48z" />
    <glyph glyph-name="F" unicode="F" horiz-adv-x="618" 
d="M604 473h-52q-7 41 -13 59.5t-22.5 35.5t-44 21.5t-77.5 4.5h-119v-235h77q68 0 92 17.5t24 75.5h47v-234h-47q0 57 -23 72t-93 15h-77v-182q0 -50 21 -65t83 -15v-43h-345v43q57 0 75 16t18 71v400q0 53 -17.5 68t-75.5 15v44h562z" />
    <glyph glyph-name="G" unicode="G" horiz-adv-x="739" 
d="M705 310v-44q-42 0 -54 -14.5t-12 -62.5v-132q-118 -68 -260 -68q-168 0 -251 87t-83 251q0 169 92.5 255.5t243.5 86.5q46 0 82 -9.5t56 -18.5t29 -9q23 0 33 37h44v-241h-49q-19 97 -67.5 142t-128.5 45q-178 0 -178 -270q0 -151 41.5 -223.5t135.5 -72.5
q44 0 72.5 9.5t57.5 33.5v87q0 55 -15.5 71t-71.5 16v44h283z" />
    <glyph glyph-name="H" unicode="H" horiz-adv-x="844" 
d="M277 511v-151h290v151q0 63 -16 83t-78 20v43h338v-43q-65 0 -80 -19.5t-15 -83.5v-367q0 -66 15.5 -83.5t79.5 -17.5v-43h-338v43q64 0 79 17t15 84v161h-290v-161q0 -67 14.5 -84t75.5 -17v-43h-332v43q63 0 78 17t15 84v367q0 63 -15 83t-78 20v43h336v-43
q-64 0 -79 -19.5t-15 -83.5z" />
    <glyph glyph-name="I" unicode="I" horiz-adv-x="405" 
d="M128 144v367q0 63 -15.5 83t-77.5 20v43h335v-43q-63 0 -78 -20t-15 -83v-367q0 -66 13.5 -83.5t75.5 -17.5v-43h-331v43q64 0 78.5 17t14.5 84z" />
    <glyph glyph-name="J" unicode="J" horiz-adv-x="470" 
d="M213 132v379q0 63 -17.5 83t-85.5 20v43h347v-43q-64 0 -79.5 -20t-15.5 -83v-346q0 -45 -14 -78.5t-35 -52t-52 -29.5t-59 -14.5t-62 -3.5q-59 0 -99.5 21.5t-40.5 70.5q0 29 16 46.5t44 17.5q26 0 42.5 -17t22 -37.5t16 -37.5t26.5 -17q28 0 37 19.5t9 78.5z" />
    <glyph glyph-name="K" unicode="K" horiz-adv-x="786" 
d="M128 144v367q0 64 -15 83.5t-78 19.5v43h336v-43q-64 0 -79 -19.5t-15 -84.5v-172h5l171 158q34 32 45.5 48.5t11.5 36.5q0 32 -37 32h-17v44h271v-44q-42 -2 -67.5 -14.5t-67.5 -51.5l-187 -168l280 -292q24 -25 45 -34.5t55 -9.5v-43h-351v43h16q38 0 38 22
q0 18 -16.5 38.5t-75.5 81.5l-30 31l-81 87h-8v-160q0 -65 14.5 -82.5t75.5 -17.5v-43h-332v43q64 0 78.5 17t14.5 84z" />
    <glyph glyph-name="L" unicode="L" horiz-adv-x="648" 
d="M631 211l-28 -211h-569v43q62 0 78 16.5t16 76.5v381q0 60 -16 78.5t-77 18.5v43h340v-43q-63 0 -80.5 -19t-17.5 -79v-396q0 -37 15 -48t60 -11h61q82 0 113 29.5t54 120.5h51z" />
    <glyph glyph-name="M" unicode="M" horiz-adv-x="996" 
d="M955 0h-323v43q56 0 72 15t16 66v398h-6l-217 -522h-79l-220 522h-6v-370q0 -75 15 -92t73 -17v-43h-254v43q61 0 76.5 17t15.5 92v369q0 57 -17 75t-73 18v43h281l188 -463h8l187 463h262v-43q-52 0 -69 -18.5t-17 -73.5v-398q0 -50 17.5 -65.5t69.5 -15.5v-43z" />
    <glyph glyph-name="N" unicode="N" horiz-adv-x="795" 
d="M777 657v-43q-31 0 -50 -8.5t-27.5 -28t-10.5 -38.5t-2 -54v-492h-115l-383 516h-5v-347q0 -75 17 -97t74 -22v-43h-251v43q60 0 77 22t17 97v403q-24 30 -42 39.5t-52 9.5v43h240l351 -471h5v299q0 29 -1 44t-6 34t-14.5 28.5t-28 16t-45.5 6.5v43h252z" />
    <glyph glyph-name="O" unicode="O" horiz-adv-x="748" 
d="M703 338q0 -165 -86 -258.5t-243 -93.5q-158 0 -243.5 89.5t-85.5 253.5q0 158 87.5 249t241.5 91q156 0 242.5 -87.5t86.5 -243.5zM547 335q0 137 -47 210.5t-129 73.5q-80 0 -125 -74t-45 -210q0 -144 43.5 -220.5t130.5 -76.5q88 0 130 72t42 225z" />
    <glyph glyph-name="P" unicode="P" horiz-adv-x="648" 
d="M35 657h323q57 0 100 -7t82 -25.5t60 -54.5t21 -89q0 -58 -21.5 -100t-60 -65t-85 -33.5t-102.5 -10.5q-22 0 -75 12v-148q0 -62 18 -77.5t94 -15.5v-43h-354v43q63 0 78 16.5t15 79.5v396q0 48 -19.5 63.5t-73.5 15.5v43zM277 605v-270q35 -5 53 -5q74 0 105.5 29.5
t31.5 114.5q0 70 -32.5 102t-108.5 32q-19 0 -49 -3z" />
    <glyph glyph-name="Q" unicode="Q" horiz-adv-x="748" 
d="M703 338q0 -137 -61 -226t-173 -114v-3q50 -75 98.5 -101t138.5 -26v-43h-49q-136 0 -210.5 27t-107.5 95l-22 43q-132 15 -202 102t-70 237q0 158 87.5 249t241.5 91q156 0 242.5 -87.5t86.5 -243.5zM547 335q0 137 -47 210.5t-129 73.5q-80 0 -125 -74t-45 -210
q0 -144 43.5 -220.5t130.5 -76.5q88 0 130 72t42 225z" />
    <glyph glyph-name="R" unicode="R" horiz-adv-x="729" 
d="M623 489q0 -135 -158 -171v-5q10 -6 18.5 -15t24 -29.5l27.5 -37l43 -60l55 -77.5q22 -31 45 -41t61 -10v-43h-227l-149 255q-13 22 -26 28.5t-40 6.5h-20v-155q0 -61 17 -76.5t82 -15.5v-43h-341v43q58 0 75.5 16.5t17.5 76.5v400q0 46 -17.5 62t-75.5 16v43h326
q55 0 100 -8.5t82.5 -27.5t58.5 -52.5t21 -79.5zM277 605v-266l38 -1q80 4 116.5 35t36.5 109q0 126 -131 126q-41 0 -60 -3z" />
    <glyph glyph-name="S" unicode="S" horiz-adv-x="529" 
d="M463 458h-47q-22 89 -57.5 126t-93.5 37q-107 0 -107 -78q0 -25 9.5 -44t32.5 -35.5t40.5 -26t54.5 -26.5q10 -5 15 -7q42 -19 71 -36.5t58.5 -44t44.5 -63t15 -81.5q0 -91 -68 -141t-183 -50q-58 0 -97 15t-41 15q-11 0 -18.5 -8.5t-7.5 -22.5h-43l-9 216h50
q23 -93 55.5 -126t95.5 -33q54 0 89.5 21t35.5 68q0 25 -9 46t-19.5 34.5t-35 29.5t-38 22.5l-46.5 22.5q-44 22 -68 36.5t-52.5 40t-41 58.5t-12.5 77q0 82 59 125t163 43q44 0 84.5 -12t46.5 -12q25 0 30 24h38z" />
    <glyph glyph-name="T" unicode="T" horiz-adv-x="659" 
d="M644 459h-50q-10 47 -17 69t-22.5 41.5t-40 25.5t-66.5 6h-44v-456q0 -68 16 -85t80 -17v-43h-343v43q65 0 81.5 17t16.5 85v456h-45q-42 0 -66.5 -6t-40 -25.5t-22.5 -42t-16 -68.5h-50l11 198h609z" />
    <glyph glyph-name="U" unicode="U" horiz-adv-x="799" 
d="M787 657v-43q-63 0 -79 -23t-16 -103v-224q0 -142 -65 -210t-211 -68q-156 0 -225 61t-69 200v279q0 53 -18 70.5t-76 17.5v43h337v-43q-60 0 -77 -18t-17 -75v-256q0 -103 37 -149t133 -46q95 0 137.5 43t42.5 145v227q0 82 -16 105.5t-78 23.5v43h260z" />
    <glyph glyph-name="V" unicode="V" horiz-adv-x="710" 
d="M449 268l107 270q9 18 9 41q0 35 -63 35v43h227v-43q-44 0 -65 -25t-66 -130l-198 -464h-79l-240 530q-25 54 -44 71.5t-62 17.5v43h334v-43q-34 0 -51 -8t-17 -32q0 -25 12 -54l113 -254l38 -98h8z" />
    <glyph glyph-name="W" unicode="W" horiz-adv-x="1046" 
d="M1042 657v-43q-33 0 -50 -15.5t-31 -54.5l-190 -552h-94l-134 361h-6l-143 -361h-88l-213 524q-21 54 -40 74t-53 24v43h309v-43q-36 0 -49.5 -7.5t-13.5 -23.5q0 -19 10 -48l112 -274l26 -79h7l108 268l-23 68q-22 64 -38.5 80t-58.5 16v43h312v-43q-35 0 -54.5 -10
t-19.5 -25q0 -23 15 -60l95 -256l25 -81h7l103 314q14 40 14 67q0 31 -17.5 41t-51.5 10v43h225z" />
    <glyph glyph-name="X" unicode="X" horiz-adv-x="700" 
d="M701 0h-347v43h7q36 0 48 5.5t12 22.5q0 31 -29 74l-51 79l-29 51h-4l-107 -141q-25 -34 -25 -59q0 -17 15.5 -24.5t56.5 -7.5v-43h-249v43q31 0 50 12.5t50 50.5l177 216l-165 223l-24.5 32t-20 19t-29.5 14.5t-40 2.5v44h338v-44h-10q-29 0 -41 -6.5t-12 -24.5
q0 -10 6.5 -25t13.5 -26l17.5 -26.5t12.5 -19.5l51 -85h4l92 125q10 13 12.5 17t7.5 13t6.5 16t1.5 16q0 14 -14.5 20t-50.5 6v44h245v-44q-43 -3 -66.5 -20t-70.5 -75l-130 -161l185 -251q26 -35 48.5 -48t57.5 -15v-43z" />
    <glyph glyph-name="Y" unicode="Y" horiz-adv-x="676" 
d="M686 657v-43q-45 -2 -67.5 -17t-53.5 -69l-150 -279v-112q0 -63 19 -78.5t82 -15.5v-43h-349v43q67 0 83 14.5t16 79.5v113l-135 229q-53 90 -78 112.5t-63 22.5v43h311v-43q-38 0 -50 -5.5t-12 -17.5q0 -16 15 -43l84 -152l38 -81h7l123 242q10 16 10 32q0 12 -11 18.5
t-46 6.5v43h227z" />
    <glyph glyph-name="Z" unicode="Z" horiz-adv-x="618" 
d="M590 209l-24 -209h-538v55l376 534v5h-150q-72 0 -104 -25.5t-46 -105.5h-53l13 194h523v-55l-372 -535v-6h144q90 0 123.5 31.5t52.5 116.5h55z" />
    <glyph glyph-name="bracketleft" unicode="[" horiz-adv-x="394" 
d="M349 -186h-249v918h249v-50h-130v-818h130v-50z" />
    <glyph glyph-name="backslash" unicode="\" horiz-adv-x="414" 
d="M295 -89l-260 798h83l261 -798h-84z" />
    <glyph glyph-name="bracketright" unicode="]" horiz-adv-x="394" 
d="M294 -186h-249v50h130v818h-130v50h249v-918z" />
    <glyph glyph-name="asciicircum" unicode="^" horiz-adv-x="480" 
d="M449 309h-60l-148 303h-3l-147 -303h-59l180 364h56z" />
    <glyph glyph-name="underscore" unicode="_" horiz-adv-x="512" 
d="M512 -160h-512v83h512v-83z" />
    <glyph glyph-name="grave" unicode="`" horiz-adv-x="222" 
d="M131 674l69 -153h-49l-133 121v32h113z" />
    <glyph glyph-name="a" unicode="a" horiz-adv-x="528" 
d="M302 53h-4q-4 -3 -13.5 -11.5t-13 -11t-11.5 -9t-12 -8.5t-11.5 -7t-12.5 -6.5l-13.5 -4t-15.5 -3.5t-16.5 -2t-19.5 -1q-58 0 -92 28t-34 86q0 29 9 52.5t27 41t36.5 30t47 23t48 16t50.5 13.5t44 12v48q0 63 -12.5 83t-49.5 20q-30 0 -40.5 -14.5t-10.5 -56.5
q0 -32 -18.5 -48t-47.5 -16q-24 0 -42.5 17.5t-18.5 49.5q0 47 52.5 79.5t136.5 32.5q194 0 194 -155v-217q0 -29 7 -38.5t24 -9.5q21 0 48 27l22 -22q-28 -41 -59 -61t-83 -20q-48 0 -68 14t-27 49zM295 97v155q-65 -20 -92 -44t-27 -77q0 -71 46 -71q35 0 73 37z" />
    <glyph glyph-name="b" unicode="b" horiz-adv-x="571" 
d="M215 706v-304h4q73 83 152 83q81 0 124 -56.5t43 -164.5q0 -139 -74 -207t-202 -68q-99 0 -190 41v547q0 34 -7.5 43.5t-35.5 9.5l-29 -2v43l161 35h54zM215 343v-257q25 -45 76 -45q92 0 92 196q0 155 -75 155q-47 0 -93 -49z" />
    <glyph glyph-name="c" unicode="c" horiz-adv-x="495" 
d="M453 169l26 -16q-37 -80 -84.5 -122t-138.5 -42q-106 0 -165.5 61t-59.5 176q0 118 64.5 189t189.5 71q84 0 133.5 -31t49.5 -79q0 -31 -20.5 -48t-51.5 -17t-48 20t-21.5 43.5t-21 43.5t-46.5 20q-85 0 -85 -164q0 -92 29 -135t106 -43q49 0 81.5 17.5t62.5 55.5z" />
    <glyph glyph-name="d" unicode="d" horiz-adv-x="592" 
d="M575 12l-179 -17h-35v64h-4q-79 -69 -154 -69q-83 0 -127 65.5t-44 166.5q0 131 63 197t164 66q52 0 97 -22h3v114q0 33 -8 42.5t-36 9.5l-29 -1v43l160 35h56v-592q0 -37 11.5 -49t40.5 -12h21v-41zM359 109v242q-19 75 -90 75q-82 0 -82 -174q0 -179 80 -179q27 0 45 8
t47 28z" />
    <glyph glyph-name="e" unicode="e" horiz-adv-x="515" 
d="M463 164l26 -18l-26.5 -47.5t-29.5 -40.5t-41.5 -37.5t-55 -21.5t-77.5 -10q-110 0 -168.5 63t-58.5 182q0 123 68 187t172 64q97 0 153.5 -58.5t57.5 -169.5h-304q0 -85 33.5 -122.5t99.5 -37.5q97 0 151 67zM178 304h148q0 137 -68 137q-41 0 -59 -31.5t-21 -105.5z
" />
    <glyph glyph-name="f" unicode="f" horiz-adv-x="362" 
d="M13 473h81q0 65 10 102t46 75q34 36 72.5 51.5t96.5 15.5q136 0 136 -86q0 -28 -17.5 -42.5t-40.5 -14.5t-35.5 11t-26.5 41q-13 26 -22.5 34t-24.5 8q-29 0 -40 -24.5t-11 -83.5v-87h125v-61h-125v-278q0 -60 19 -77t84 -17v-40h-334v40q57 0 72.5 16t15.5 78v278h-81
v61z" />
    <glyph glyph-name="g" unicode="g" horiz-adv-x="530" 
d="M113 182v6q-22 13 -34.5 23t-26 38.5t-13.5 68.5q0 81 61 122.5t147 41.5q30 0 63.5 -4t51.5 -8l19 -4h141v-62h-93v-4q27 -43 27 -96q0 -81 -59 -118t-146 -37q-55 0 -97 17q-17 -27 -17 -51q0 -13 7.5 -19t35.5 -10t88 -4q131 -2 185.5 -29t54.5 -101q0 -53 -30 -93
t-78.5 -61t-99.5 -31t-102 -10q-98 0 -138.5 28t-40.5 79q0 27 17 49t58 54v3q-67 18 -67 82q0 13 2 24.5t7.5 22.5l9 18t14.5 18t15 14.5l19 16.5t19 16zM244 432q-72 0 -72 -110q0 -125 78 -125q70 0 70 115q0 120 -76 120zM135 -40q-18 -34 -18 -68q0 -69 148 -69
q138 0 138 73q0 21 -10 34t-33.5 19t-43 7.5t-56.5 1.5q-34 0 -62.5 0.5t-42.5 1t-20 0.5z" />
    <glyph glyph-name="h" unicode="h" horiz-adv-x="640" 
d="M235 346v-238q0 -40 12 -54t60 -14v-40h-285v40q42 0 56 12t14 52v493q0 24 -12 32t-36 8l-29 -3v41l158 31h62v-305h4q44 45 77.5 64.5t77.5 19.5q78 0 118.5 -48.5t40.5 -141.5v-183q0 -42 13.5 -57t56.5 -15v-40h-278v40q44 0 54.5 14t10.5 55v138q0 28 -1 44.5
t-5 37.5t-12 32.5t-23 19.5t-36 8q-46 0 -98 -43z" />
    <glyph glyph-name="i" unicode="i" horiz-adv-x="329" 
d="M314 40v-40h-296v40q48 0 62 13.5t14 56.5v255q0 31 -12.5 40t-38.5 9l-26 -2v42l150 28h70v-369q0 -45 14 -59t63 -14zM162 709q39 0 60 -21t21 -56q0 -37 -21 -58t-60 -21q-37 0 -58.5 21t-21.5 57t21 57t59 21z" />
    <glyph glyph-name="j" unicode="j" horiz-adv-x="312" 
d="M235 482v-484q0 -116 -59 -174.5t-153 -58.5q-62 0 -99.5 22.5t-37.5 70.5q0 24 15 39.5t39 15.5q23 0 39.5 -14.5t23.5 -31.5t19 -31.5t27 -14.5q16 0 24.5 7.5t12.5 30t5 45t1 71.5v385q0 32 -10 43t-36 11l-31 -2v42l149 28h71zM163 713q39 0 60 -21t21 -56
q0 -37 -21 -58t-60 -21q-37 0 -59 21.5t-22 56.5q0 36 21.5 57t59.5 21z" />
    <glyph glyph-name="k" unicode="k" horiz-adv-x="613" 
d="M615 0h-262v40q21 0 27.5 3.5t6.5 11.5q0 11 -11 23l-132 151h-9v-126q0 -39 14 -51t58 -12v-40h-289v40q47 0 60.5 13t13.5 56v488q0 40 -44 40l-36 -2v40l156 31h67v-440h8l106 116q14 16 14 29q0 12 -10 17t-40 5v40h260v-40q-39 0 -77.5 -21t-118.5 -86l-39 -32
l202 -215q24 -26 38 -32.5t37 -6.5v-40z" />
    <glyph glyph-name="l" unicode="l" horiz-adv-x="327" 
d="M315 40v-40h-296v40q47 0 60 14t13 58v483q0 26 -13 34t-36 8l-31 -2v40l157 31h66v-594q0 -45 14 -58.5t66 -13.5z" />
    <glyph glyph-name="m" unicode="m" horiz-adv-x="948" 
d="M549 290v-178q0 -42 13.5 -57t55.5 -15v-40h-277v40q43 0 54 14t11 58v156q0 67 -18.5 94t-55.5 27q-51 0 -95 -44v-233q0 -44 12.5 -58t59.5 -14v-40h-284v40q47 0 58 13.5t11 58.5v257q0 27 -9.5 36t-31.5 9l-27 -2v41l154 29h54v-82h5q30 29 46 43t46.5 28t63.5 14
q108 0 140 -91h4q89 91 168 91q72 0 113 -49t41 -146v-178q0 -42 13.5 -57t55.5 -15v-40h-277v40q43 0 54 14t11 58v156q0 68 -18 94.5t-55 26.5q-54 0 -99 -45q3 -26 3 -54z" />
    <glyph glyph-name="n" unicode="n" horiz-adv-x="646" 
d="M559 290v-178q0 -42 13.5 -57t55.5 -15v-40h-278v40q43 0 54.5 14t11.5 58v156q0 68 -19.5 94.5t-61.5 26.5q-45 0 -97 -43v-234q0 -44 12 -58t59 -14v-40h-284v40q47 0 58 13.5t11 58.5v257q0 27 -9.5 36t-31.5 9l-27 -2v41l154 29h55v-82h4q44 43 78.5 64t75.5 21
q80 0 123 -49t43 -146z" />
    <glyph glyph-name="o" unicode="o" horiz-adv-x="548" 
d="M277 485q118 0 178.5 -62t60.5 -172q0 -128 -62 -194.5t-180 -66.5q-242 0 -242 250q0 110 62 177.5t183 67.5zM269 437q-85 0 -85 -187q0 -108 22.5 -159.5t70.5 -51.5t67.5 48.5t19.5 155.5q0 194 -95 194z" />
    <glyph glyph-name="p" unicode="p" horiz-adv-x="586" 
d="M228 484v-82h5q44 44 78.5 64t80.5 20q75 0 118 -55.5t43 -169.5q0 -124 -63.5 -198t-157.5 -74q-59 0 -99 26h-3v-116q0 -48 19 -63t78 -15v-41h-313v40q46 0 59.5 14.5t13.5 57.5v471q0 31 -7 42t-31 11l-32 -2v42l154 28h57zM230 343v-248q33 -50 77 -50q90 0 90 188
q0 84 -18.5 121.5t-56.5 37.5q-43 0 -92 -49z" />
    <glyph glyph-name="q" unicode="q" horiz-adv-x="578" 
d="M565 -220h-301v41q60 0 77 15.5t17 62.5v157h-3q-80 -66 -154 -66q-81 0 -125 65t-44 166q0 124 59 194t171 70q67 0 131 -36l38 31h70v-590q0 -40 12 -54.5t52 -14.5v-41zM358 109v255q-32 62 -86 62q-40 0 -62.5 -42t-22.5 -123q0 -91 17 -139.5t64 -48.5q41 0 90 36z
" />
    <glyph glyph-name="r" unicode="r" horiz-adv-x="449" 
d="M235 482v-104h4l27 37t24.5 33t20.5 20.5t27.5 16t31.5 3.5q77 0 77 -82q0 -40 -18 -60.5t-43 -20.5q-26 0 -52 21t-31 21q-26 0 -66 -45v-206q0 -47 20.5 -61.5t76.5 -14.5v-40h-314v40q48 0 61 13t13 56v245q0 29 -8.5 42.5t-33.5 13.5l-31 -2v43l157 31h57z" />
    <glyph glyph-name="s" unicode="s" horiz-adv-x="440" 
d="M36 177h44q15 -73 43 -106.5t81 -33.5q37 0 58.5 14t21.5 42q0 24 -22.5 43.5t-91.5 51.5q-72 35 -102.5 67.5t-30.5 93.5q0 63 45 99.5t126 36.5q57 0 113 -34h4l15 25h41l3 -163h-44q-19 69 -47.5 97t-71.5 28q-33 0 -50 -15t-17 -38q0 -9 2 -16.5t8 -14.5t10.5 -11.5
t17 -11l19.5 -10l25 -12l28 -13.5q40 -19 61 -31t44 -31.5t33 -43.5t10 -57q0 -145 -197 -145q-61 0 -117 28h-4l-22 -28h-32z" />
    <glyph glyph-name="t" unicode="t" horiz-adv-x="382" 
d="M357 112l25 -28q-20 -26 -32 -39t-33.5 -29t-49.5 -23t-66 -7q-61 0 -89 33.5t-28 116.5v276h-63v42q99 60 147 161h60l-1 -142h125v-61h-125v-241q0 -54 10.5 -73t39.5 -19q27 0 43 7.5t37 25.5z" />
    <glyph glyph-name="u" unicode="u" horiz-adv-x="631" 
d="M615 60v-37l-173 -29h-39v87h-4q-50 -53 -84.5 -72t-83.5 -19q-77 0 -112.5 39.5t-35.5 136.5v193q0 44 -13 54t-57 11v41l166 13h47v-283q0 -66 16.5 -86.5t53.5 -20.5q30 0 51 10t51 35v230q0 41 -16 51t-69 10v41l187 13h41v-343q0 -47 13.5 -61t54.5 -14h6z" />
    <glyph glyph-name="v" unicode="v" horiz-adv-x="530" 
d="M558 473v-40q-30 0 -47 -15t-36 -57l-168 -368h-88l-151 357q-20 50 -38.5 66.5t-50.5 16.5v40h281v-40q-57 0 -57 -28q0 -18 10 -40l72 -175l22 -63h8l24 65l76 177q6 15 6 36q0 16 -12.5 22t-42.5 6v40h192z" />
    <glyph glyph-name="w" unicode="w" horiz-adv-x="847" 
d="M869 473v-40q-28 0 -44.5 -13t-30.5 -47l-162 -380h-96l-98 268h-4l-120 -268h-95l-159 378q-16 40 -30 51t-47 11v40h270v-40q-28 0 -38 -4.5t-10 -15.5q0 -14 10 -41l79 -188l18 -56h8l21 57l70 155l-11 31q-15 42 -26.5 52t-44.5 10v40h248v-40q-47 0 -47 -20
q0 -14 10 -41l71 -188l18 -56h7l19 57l72 194q6 16 6 30q0 24 -65 24v40h201z" />
    <glyph glyph-name="x" unicode="x" horiz-adv-x="531" 
d="M539 0h-271v40q25 0 35.5 6.5t10.5 21.5q0 14 -11 28l-48 70l-18 31h-4l-65 -84q-30 -39 -30 -54q0 -19 40 -19v-40h-184v40q24 0 39 10t44 42l131 138l-109 142q-27 35 -49 49t-52 14v38h272v-38q-40 0 -40 -21q0 -3 0.5 -6t2 -6.5t3.5 -7t6.5 -10.5t9 -13t12.5 -18
l16 -23l18 -31h4l39 43q34 44 34 70q0 23 -41 23v38h184v-38q-24 0 -39.5 -10t-37.5 -35l-115 -123l127 -164q19 -26 27.5 -36t23.5 -18.5t35 -8.5v-40z" />
    <glyph glyph-name="y" unicode="y" horiz-adv-x="530" 
d="M552 473v-39q-28 0 -41.5 -11.5t-26.5 -40.5l-178 -398q-46 -105 -96.5 -152t-115.5 -47q-83 0 -83 65q0 24 13.5 37.5t35.5 13.5q18 0 45 -12t44 -12q32 0 59 38.5t27 71.5q0 28 -52 129l-143 283q-18 35 -61 35v39h270v-40q-31 0 -43 -6t-12 -21q0 -12 15 -42l90 -181
l19 -51h5l91 259q3 12 3 19q0 24 -50 24v39h185z" />
    <glyph glyph-name="z" unicode="z" horiz-adv-x="495" 
d="M458 169l-10 -169h-414v44l260 374v4h-90q-90 0 -106 -108h-45l5 159h397v-47l-260 -372v-5h85q60 0 90 24.5t41 95.5h47z" />
    <glyph glyph-name="braceleft" unicode="{" horiz-adv-x="378" 
d="M50 236v65q89 4 89 66q0 28 -16.5 103t-16.5 108q0 77 63.5 115.5t163.5 38.5v-45q-99 0 -99 -104q0 -24 10.5 -81t10.5 -97q0 -49 -29.5 -82.5t-71.5 -48.5v-6q98 -23 98 -124q0 -41 -9 -95t-9 -89q0 -47 29 -74t70 -27v-45q-100 0 -163.5 38t-63.5 114q0 34 16.5 108.5
t16.5 100.5q0 59 -89 61z" />
    <glyph glyph-name="bar" unicode="|" horiz-adv-x="293" 
d="M188 -178h-83v857h83v-857z" />
    <glyph glyph-name="braceright" unicode="}" horiz-adv-x="378" 
d="M328 301v-65q-89 -2 -89 -61q0 -26 16.5 -100.5t16.5 -108.5q0 -76 -63.5 -114t-163.5 -38v45q41 0 70 27t29 74q0 35 -9 89t-9 95q0 101 98 124v6q-42 15 -71.5 48.5t-29.5 82.5q0 40 10.5 97t10.5 81q0 104 -99 104v45q100 0 163.5 -38.5t63.5 -115.5q0 -33 -16.5 -108
t-16.5 -103q0 -62 89 -66z" />
    <glyph glyph-name="asciitilde" unicode="~" horiz-adv-x="599" 
d="M405 180q-37 0 -105 25t-106 25q-52 0 -93 -69l-71 37q36 71 70.5 103t93.5 32q37 0 105 -25t106 -25q51 0 92 69l72 -37q-36 -71 -70.5 -103t-93.5 -32z" />
    <glyph glyph-name="uni00A0" unicode="&#xa0;" horiz-adv-x="256" 
 />
    <glyph glyph-name="exclamdown" unicode="&#xa1;" horiz-adv-x="326" 
d="M192 281l48 -345q6 -56 6 -65q0 -66 -83 -66t-83 68q0 25 5 63l52 345h55zM89 412q1 70 77 70q78 0 78 -71q0 -76 -78 -76q-37 0 -57.5 20.5t-19.5 56.5z" />
    <glyph glyph-name="cent" unicode="&#xa2;" horiz-adv-x="495" 
d="M445 255l26 -16q-18 -36 -30.5 -57.5t-34.5 -46t-51 -39t-68 -19.5l-7 -109h-59l6 107q-96 5 -150 66.5t-54 175.5q0 109 59.5 178t175.5 76l6 86h59l-6 -87q66 -7 104.5 -37.5t38.5 -72.5q0 -30 -21 -46.5t-53 -16.5q-17 0 -30 10t-17.5 18.5t-12 31.5t-9.5 27h-5
q-3 -58 -10 -160.5t-9 -139.5h8q51 0 82 16t62 55zM166 361q0 -68 15.5 -108.5t53.5 -57.5l20 329q-48 -1 -68.5 -40.5t-20.5 -122.5z" />
    <glyph glyph-name="sterling" unicode="&#xa3;" horiz-adv-x="495" 
d="M399 304h-122q1 -11 1 -33q0 -67 -28 -148q52 -19 85 -19q61 0 122 65l27 -16q-23 -77 -55 -118t-96 -41q-10 0 -19.5 1t-16 2t-16 4.5t-13.5 4.5t-15.5 7.5l-14 8l-17 10.5t-18.5 11q-45 -51 -123 -51q-36 0 -55.5 19t-19.5 55q0 44 25 66t65 22q28 0 53 -9
q0 61 -17 159h-91v53h87q-5 40 -5 70q0 96 51 156.5t152 60.5q150 0 150 -91q0 -29 -16 -44t-39 -15q-27 0 -42.5 15t-20.5 32.5t-16.5 32.5t-31.5 15q-26 0 -38 -15t-12 -58q0 -56 12 -159h128v-53zM135 75v2q-20 22 -44 22q-29 0 -29 -32t31 -32q29 0 42 40z" />
    <glyph glyph-name="currency" unicode="&#xa4;" horiz-adv-x="637" 
d="M597 41l-49 -51l-100 100q-59 -42 -128 -42q-70 0 -130 42l-99 -100l-51 51l101 98q-42 60 -42 129q0 72 42 129l-101 100l51 50l99 -99q62 40 130 40q71 0 128 -40l100 99l49 -50l-98 -100q40 -59 40 -128t-40 -130zM469 270q0 64 -43.5 108.5t-107.5 44.5
q-61 0 -105.5 -45.5t-44.5 -108.5q0 -65 44.5 -110.5t107.5 -45.5t106 45.5t43 111.5z" />
    <glyph glyph-name="yen" unicode="&#xa5;" horiz-adv-x="495" 
d="M54 250v55h123l-104 175l-15.5 26.5l-13 22l-10.5 17.5t-9 14.5t-7.5 10.5t-7 8.5t-6.5 5.5t-7.5 4t-7.5 1.5t-9 0.5v39h262v-39q-32 0 -42 -5.5t-10 -17.5q0 -22 22 -60l56 -100l22 -55h6l78 170q11 24 11 38q0 28 -51 29v40h182v-40q-34 -1 -50 -18.5t-45 -76.5
l-92 -190h122v-55h-130v-53h130v-55h-130v-9q0 -65 15 -79t73 -14v-40h-307v40q59 0 71.5 13.5t12.5 79.5v9h-132v55h132v53h-132z" />
    <glyph glyph-name="brokenbar" unicode="&#xa6;" horiz-adv-x="293" 
d="M188 679v-292h-83v292h83zM188 254v-292h-83v292h83z" />
    <glyph glyph-name="section" unicode="&#xa7;" horiz-adv-x="491" 
d="M446 226q0 -27 -9 -49t-27 -38t-34 -25.5t-40 -21.5v-6q28 -26 44 -44t30.5 -47.5t14.5 -59.5q0 -72 -59.5 -107.5t-139.5 -35.5q-71 0 -114.5 34t-43.5 86q0 30 15 48t41 18q23 0 38 -11.5t15 -32.5q0 -15 -6.5 -32.5t-6.5 -30.5q0 -17 17 -27.5t45 -10.5
q34 0 59.5 15.5t25.5 47.5q0 28 -25.5 56.5t-61.5 54.5l-72.5 55t-62 70.5t-25.5 89.5q0 46 24.5 74t68.5 50v6q-88 75 -88 157q0 74 50 108.5t126 34.5q72 0 117.5 -34t45.5 -86q0 -30 -15 -48t-41 -18q-23 0 -38 11.5t-15 32.5q0 15 6.5 32.5t6.5 30.5q0 17 -19.5 27.5
t-47.5 10.5q-71 0 -71 -63q0 -31 28 -60.5t68 -55l80 -53.5t68 -67.5t28 -85.5zM169 267q0 -21 13.5 -42t26 -32.5t47 -37.5t45.5 -35q27 20 27 51q0 12 -3.5 23.5t-12 23t-16 20.5t-23 21.5l-24.5 19.5l-28 21l-28 21q-24 -18 -24 -54z" />
    <glyph glyph-name="dieresis" unicode="&#xa8;" horiz-adv-x="391" 
d="M82 697q36 0 56 -19.5t20 -52.5q0 -34 -20 -54t-56 -20q-35 0 -55 20t-20 53q0 34 19.5 53.5t55.5 19.5zM306 698q36 0 56 -19.5t20 -52.5q0 -34 -20 -54t-56 -20q-35 0 -55 20t-20 53t19.5 53t55.5 20z" />
    <glyph glyph-name="copyright" unicode="&#xa9;" horiz-adv-x="781" 
d="M55 330q0 152 94 249t240 97q148 0 242.5 -97t94.5 -249q0 -151 -94.5 -247.5t-242.5 -96.5q-146 0 -240 96.5t-94 247.5zM93 330q0 -137 82 -224t214 -87q134 0 216.5 87t82.5 224q0 139 -82.5 226t-216.5 87q-132 0 -214 -87t-82 -226zM537 246l22 -18
q-59 -87 -162 -87q-95 0 -145.5 48t-50.5 140q0 91 52.5 142.5t148.5 51.5q37 0 65.5 -9.5t30.5 -9.5q6 0 21 18h24v-134h-34q-10 50 -36 71.5t-73 21.5q-53 0 -72.5 -36t-19.5 -107q0 -136 109 -136q43 0 69 9.5t51 34.5z" />
    <glyph glyph-name="ordfeminine" unicode="&#xaa;" horiz-adv-x="448" 
d="M245 300h-5q-5 -4 -18 -16t-17 -14.5t-14 -9.5t-16.5 -8.5t-17 -3.5t-23.5 -2q-48 0 -76 23.5t-28 70.5q0 24 6.5 43t23 33.5t28 23.5t39.5 18t38 12t41 11l34 9v36q0 49 -9.5 64.5t-37.5 15.5q-23 0 -30.5 -11t-7.5 -43q0 -54 -55 -54q-21 0 -36.5 14.5t-15.5 41.5
q0 39 42.5 66t111.5 27q158 0 158 -127v-171q0 -21 5 -28t17 -7q19 0 40 21l20 -19q-24 -35 -50 -52t-68 -17q-38 0 -55 12.5t-24 40.5zM240 337v116q-50 -17 -69.5 -34t-19.5 -56q0 -54 33 -54q26 0 56 28z" />
    <glyph glyph-name="guillemotleft" unicode="&#xab;" horiz-adv-x="567" 
d="M26 256q173 128 236 185l29 -29l-136 -164v-6l136 -167l-29 -29q-63 57 -236 185v25zM243 256q173 128 236 185l29 -29l-136 -164v-6l136 -167l-29 -29q-63 57 -236 185v25z" />
    <glyph glyph-name="logicalnot" unicode="&#xac;" horiz-adv-x="672" 
d="M606 106h-92v217h-448v91h540v-308z" />
    <glyph glyph-name="uni00AD" unicode="&#xad;" horiz-adv-x="315" 
d="M270 218h-225v65h225v-65z" />
    <glyph glyph-name="registered" unicode="&#xae;" horiz-adv-x="413" 
d="M36 546q0 76 48.5 126t121.5 50q75 0 123 -49.5t48 -126.5q0 -76 -48 -125t-123 -49q-74 0 -122 49t-48 125zM59 546q0 -68 40.5 -111t106.5 -43t107 43t41 111q0 69 -41 112.5t-107 43.5t-106.5 -43.5t-40.5 -112.5zM285 590q0 -39 -49 -49v-2l8 -8t16 -17.5l25 -28.5
q11 -14 24 -14v-16h-53l-52 73q-6 7 -11 7h-12v-39q0 -17 5 -21t26 -4v-16h-98v16q17 0 22.5 4.5t5.5 20.5v107q0 13 -4.5 17t-21.5 4v14h86q83 0 83 -48zM181 619v-67h10q27 0 38.5 8.5t11.5 29.5q0 17 -10 23t-32 6h-18z" />
    <glyph glyph-name="macron" unicode="&#xaf;" horiz-adv-x="350" 
d="M320 555h-290v75h290v-75z" />
    <glyph glyph-name="degree" unicode="&#xb0;" horiz-adv-x="429" 
d="M377 546q0 -73 -46.5 -118t-115.5 -45q-71 0 -117 45t-46 119q0 71 47 116t118 45q67 0 113.5 -46t46.5 -116zM301 547q0 42 -25 68t-63 26q-37 0 -61 -26t-24 -69q0 -42 24.5 -69t62.5 -27q37 0 61.5 27t24.5 70z" />
    <glyph glyph-name="plusminus" unicode="&#xb1;" horiz-adv-x="759" 
d="M693 236h-268v-214h-92v214h-267v91h267v203h92v-203h268v-91zM693 -131h-627v91h627v-91z" />
    <glyph glyph-name="uni00B2" unicode="&#xb2;" horiz-adv-x="400" 
d="M349 562l-22 -112h-276v24l106 106q58 60 81.5 99t23.5 90q0 40 -24 63t-64 23q-18 0 -32 -3t-26.5 -11t-23 -21.5t-20.5 -32.5l-17 7q11 34 30 57.5t46.5 36.5t60.5 13q60 0 97.5 -33.5t37.5 -87.5q0 -44 -26.5 -84t-87.5 -102l-93 -87v-4l49 2h97q27 0 38.5 11.5
t24.5 45.5h20z" />
    <glyph glyph-name="uni00B3" unicode="&#xb3;" horiz-adv-x="400" 
d="M84 799l-16 9q40 93 127 93q52 0 82.5 -26.5t30.5 -67.5q0 -33 -19 -55.5t-57 -46.5v-2q103 -33 103 -117q0 -69 -55 -107t-136 -38q-79 0 -79 38q0 12 7.5 21.5t20.5 9.5q11 0 41 -16q36 -18 57 -18q86 0 86 89q0 45 -37 74t-89 29h-14v27h13q38 0 67.5 27t29.5 68
q0 30 -19 47.5t-52 17.5q-56 0 -92 -56z" />
    <glyph glyph-name="acute" unicode="&#xb4;" horiz-adv-x="222" 
d="M22 521l69 153h113v-32l-133 -121h-49z" />
    <glyph glyph-name="uni00B5" unicode="&#xb5;" horiz-adv-x="582" 
d="M486 446l-43 -229q3 -67 15 -95.5t50 -28.5q20 0 36 7t19.5 11l17.5 20l24 -16q-17 -51 -50.5 -88t-82.5 -37q-20 0 -34.5 8.5t-22.5 19t-13.5 32t-6.5 35l-3 41t-3 37.5h-10q-19 -176 -110 -176q-10 0 -19.5 2t-17 4.5t-15 7.5l-12.5 8.5t-11.5 11l-9.5 11t-8.5 12
t-7 10.5t-6.5 11l-5 9h-7q1 -100 18 -265l-94 -26l-34 3q1 193 31 363l-1 320l120 3l16 -28l-41 -217q-2 -15 -2 -27q0 -44 19 -60t68 -16q28 0 49 17t31.5 42t15.5 46.5t5 38.5l4 201l115 3z" />
    <glyph glyph-name="paragraph" unicode="&#xb6;" horiz-adv-x="605" 
d="M455 -148h-68v769h-60v-769h-68l1 406q-103 9 -154 55t-51 148q0 100 54 148t166 48h270v-26q-58 -5 -74.5 -25t-16.5 -78zM260 287z" />
    <glyph glyph-name="periodcentered" unicode="&#xb7;" horiz-adv-x="282" 
d="M200 255q0 -24 -16 -40.5t-44 -16.5t-43 16t-15 42t16 43.5t43 17.5t43 -18t16 -44z" />
    <glyph glyph-name="cedilla" unicode="&#xb8;" horiz-adv-x="247" 
d="M127 4l-14 -57q12 2 24 2q43 0 68.5 -20t25.5 -57q0 -46 -32 -69.5t-85 -23.5q-45 0 -92 37l18 32q31 -21 65 -21q50 0 50 41q0 35 -42 35l-33 -3l-16 16l23 88h40z" />
    <glyph glyph-name="uni00B9" unicode="&#xb9;" horiz-adv-x="400" 
d="M323 450h-242v20q25 0 42 2t28 8t15.5 14.5t4.5 21.5v297q0 18 -5 26t-18 8q-36 0 -71 -11v23l136 38h20v-381q0 -25 21 -35.5t69 -10.5v-20z" />
    <glyph glyph-name="ordmasculine" unicode="&#xba;" horiz-adv-x="447" 
d="M226 643q96 0 145 -50t49 -140q0 -104 -50 -156.5t-146 -52.5q-98 0 -147.5 48t-49.5 152q0 90 50.5 144.5t148.5 54.5zM220 602q-65 0 -65 -150q0 -166 71 -166q37 0 52 38t15 122q0 156 -73 156z" />
    <glyph glyph-name="guillemotright" unicode="&#xbb;" horiz-adv-x="567" 
d="M541 256v-25q-173 -128 -236 -185l-29 29l136 167v6l-136 164l29 29q63 -57 236 -185zM324 256v-25q-173 -128 -236 -185l-29 29l136 167v6l-136 164l29 29q63 -57 236 -185z" />
    <glyph glyph-name="onequarter" unicode="&#xbc;" horiz-adv-x="861" 
d="M281 252h-232v27q50 0 64.5 10t14.5 39v241q0 38 -28 38q-12 0 -57 -10v30l125 36h33v-335q0 -29 15.5 -39t64.5 -10v-27zM667 692l-426 -712h-52l426 712h52zM834 98h-70v-98h-70v98h-199v45l218 270h51v-257h70v-58zM694 156v169h-5l-132 -166v-3h137z" />
    <glyph glyph-name="onehalf" unicode="&#xbd;" horiz-adv-x="889" 
d="M281 252h-232v27q50 0 64.5 10t14.5 39v241q0 38 -28 38q-12 0 -57 -10v30l125 36h33v-335q0 -29 15.5 -39t64.5 -10v-27zM667 692l-426 -712h-52l426 712h52zM867 127l-25 -127h-296v37l102 85q69 54 93 86.5t24 82.5q0 72 -83 72q-74 0 -114 -53l-20 9q19 44 59.5 70.5
t93.5 26.5q67 0 105 -31.5t38 -85.5q0 -47 -29.5 -82t-100.5 -86l-89 -65v-5l57 3h88q30 0 42 12.5t28 50.5h27z" />
    <glyph glyph-name="threequarters" unicode="&#xbe;" horiz-adv-x="861" 
d="M55 558l-22 10q22 49 60.5 74.5t86.5 25.5q59 0 93 -25t34 -64q0 -63 -86 -98v-5q49 -10 78.5 -37.5t29.5 -69.5q0 -65 -58.5 -95t-150.5 -30q-87 0 -87 44q0 36 31 36q13 0 49.5 -21t59.5 -21q83 0 83 73q0 87 -132 87h-14v35h14q43 0 77.5 22.5t34.5 57.5q0 28 -22 43
t-56 15q-68 0 -103 -57zM667 692l-426 -712h-52l426 712h52zM834 98h-70v-98h-70v98h-199v45l218 270h51v-257h70v-58zM694 156v169h-5l-132 -166v-3h137z" />
    <glyph glyph-name="questiondown" unicode="&#xbf;" horiz-adv-x="461" 
d="M213 281h62v-27q0 -43 -14 -79.5t-30.5 -60t-30.5 -64.5t-14 -93q0 -56 21.5 -83t57.5 -27q30 0 46.5 14t16.5 38q0 16 -10.5 34t-10.5 38q0 29 17.5 42.5t42.5 13.5q32 0 52.5 -22t20.5 -62q0 -63 -56 -102t-145 -39q-54 0 -98 13.5t-74.5 49t-30.5 89.5q0 45 18 83.5
t44 65.5t52.5 51.5t44.5 52.5t18 58v16zM165 412q1 70 77 70q78 0 78 -71q0 -76 -78 -76q-37 0 -57.5 20.5t-19.5 56.5z" />
    <glyph glyph-name="Agrave" unicode="&#xc0;" horiz-adv-x="749" 
d="M740 0h-321v43q59 0 59 32q0 25 -20 76l-23 60h-230l-29 -73q-14 -40 -14 -58q0 -23 14.5 -30t53.5 -7v-43h-228v43q38 0 58 19t43 78l217 522h105l216 -524q21 -50 43.5 -72.5t55.5 -22.5v-43zM417 263l-89 249h-4l-101 -249h194zM374 831l101 -133h-65l-157 101v32h121
z" />
    <glyph glyph-name="Aacute" unicode="&#xc1;" horiz-adv-x="749" 
d="M740 0h-321v43q59 0 59 32q0 25 -20 76l-23 60h-230l-29 -73q-14 -40 -14 -58q0 -23 14.5 -30t53.5 -7v-43h-228v43q38 0 58 19t43 78l217 522h105l216 -524q21 -50 43.5 -72.5t55.5 -22.5v-43zM417 263l-89 249h-4l-101 -249h194zM265 698l101 133h121v-32l-157 -101
h-65z" />
    <glyph glyph-name="Acircumflex" unicode="&#xc2;" horiz-adv-x="749" 
d="M740 0h-321v43q59 0 59 32q0 25 -20 76l-23 60h-230l-29 -73q-14 -40 -14 -58q0 -23 14.5 -30t53.5 -7v-43h-228v43q38 0 58 19t43 78l217 522h105l216 -524q21 -50 43.5 -72.5t55.5 -22.5v-43zM417 263l-89 249h-4l-101 -249h194zM536 698h-62l-104 68l-102 -68h-63
l118 139h93z" />
    <glyph glyph-name="Atilde" unicode="&#xc3;" horiz-adv-x="749" 
d="M740 0h-321v43q59 0 59 32q0 25 -20 76l-23 60h-230l-29 -73q-14 -40 -14 -58q0 -23 14.5 -30t53.5 -7v-43h-228v43q38 0 58 19t43 78l217 522h105l216 -524q21 -50 43.5 -72.5t55.5 -22.5v-43zM417 263l-89 249h-4l-101 -249h194zM504 816h38q-11 -58 -35.5 -84
t-67.5 -26q-19 0 -68.5 14.5t-70.5 14.5q-40 0 -53 -34h-39q8 51 35 81.5t66 30.5q19 0 70.5 -14.5t74.5 -14.5q37 0 50 32z" />
    <glyph glyph-name="Adieresis" unicode="&#xc4;" horiz-adv-x="749" 
d="M740 0h-321v43q59 0 59 32q0 25 -20 76l-23 60h-230l-29 -73q-14 -40 -14 -58q0 -23 14.5 -30t53.5 -7v-43h-228v43q38 0 58 19t43 78l217 522h105l216 -524q21 -50 43.5 -72.5t55.5 -22.5v-43zM417 263l-89 249h-4l-101 -249h194zM259 833q36 0 55.5 -17.5t19.5 -48.5
q0 -32 -19.5 -50t-55.5 -18q-35 0 -54.5 18t-19.5 49t19 49t55 18zM479 834q36 0 55.5 -17.5t19.5 -48.5q0 -32 -19.5 -50t-55.5 -18q-35 0 -54.5 18t-19.5 49t19 49t55 18z" />
    <glyph glyph-name="Aring" unicode="&#xc5;" horiz-adv-x="749" 
d="M740 0h-321v43q59 0 59 32q0 25 -20 76l-23 60h-230l-29 -73q-14 -40 -14 -58q0 -23 14.5 -30t53.5 -7v-43h-228v43q38 0 58 19t43 78l217 522h105l216 -524q21 -50 43.5 -72.5t55.5 -22.5v-43zM417 263l-89 249h-4l-101 -249h194zM487 802q0 -47 -34 -74.5t-83 -27.5
t-83 27.5t-34 75.5q0 45 34 73t83 28t83 -28t34 -74zM417 803q0 23 -11.5 37t-35.5 14q-46 0 -46 -51t46 -51q47 0 47 51z" />
    <glyph glyph-name="AE" unicode="&#xc6;" horiz-adv-x="954" 
d="M926 197l-26 -197h-576v43q67 0 82 18.5t15 96.5v143h-167l-95 -169q-15 -26 -15 -51q0 -22 15 -30t52 -8v-43h-237v43q40 0 62.5 21.5t55.5 82.5l226 395q13 26 13 42q0 19 -15.5 25t-48.5 6v42h623l6 -181h-51q-10 73 -38.5 95.5t-102.5 22.5h-135v-239h87
q72 0 91.5 13.5t19.5 71.5h47v-228h-47q0 59 -20 74t-91 15h-87v-240h116q96 0 132 24.5t60 111.5h49zM421 355v239h-7l-134 -239h141z" />
    <glyph glyph-name="Ccedilla" unicode="&#xc7;" horiz-adv-x="685" 
d="M620 185l32 -28q-29 -42 -52 -67.5t-57.5 -51.5t-79 -38t-102.5 -12h-6l-10 -41q12 2 24 2q43 0 69.5 -21t26.5 -58q0 -45 -32.5 -68t-86.5 -23q-45 0 -92 37l18 32q32 -21 65 -21q50 0 50 41q0 35 -42 35l-33 -3l-16 16l19 75q-135 13 -202.5 101t-67.5 229
q0 168 92 258t247 90q62 0 110 -16.5t54 -16.5q23 0 32 33h43v-246h-48q-41 192 -193 192q-180 0 -180 -268q0 -138 50.5 -200t157.5 -62q70 0 116.5 24t93.5 76z" />
    <glyph glyph-name="Egrave" unicode="&#xc8;" horiz-adv-x="660" 
d="M632 197l-24 -197h-573v43q54 0 73.5 15t19.5 68v397q0 57 -16 73.5t-77 16.5v44h562l6 -181h-51q-12 71 -38 94.5t-106 23.5h-132v-230h89q75 0 92 13.5t17 71.5h47v-231h-47q0 63 -17 77.5t-92 14.5h-89v-249h118q97 0 131.5 26t58.5 110h48zM355 831l101 -133h-65
l-157 101v32h121z" />
    <glyph glyph-name="Eacute" unicode="&#xc9;" horiz-adv-x="660" 
d="M632 197l-24 -197h-573v43q54 0 73.5 15t19.5 68v397q0 57 -16 73.5t-77 16.5v44h562l6 -181h-51q-12 71 -38 94.5t-106 23.5h-132v-230h89q75 0 92 13.5t17 71.5h47v-231h-47q0 63 -17 77.5t-92 14.5h-89v-249h118q97 0 131.5 26t58.5 110h48zM247 698l101 133h121v-32
l-157 -101h-65z" />
    <glyph glyph-name="Ecircumflex" unicode="&#xca;" horiz-adv-x="660" 
d="M632 197l-24 -197h-573v43q54 0 73.5 15t19.5 68v397q0 57 -16 73.5t-77 16.5v44h562l6 -181h-51q-12 71 -38 94.5t-106 23.5h-132v-230h89q75 0 92 13.5t17 71.5h47v-231h-47q0 63 -17 77.5t-92 14.5h-89v-249h118q97 0 131.5 26t58.5 110h48zM518 698h-62l-104 68
l-102 -68h-63l118 139h93z" />
    <glyph glyph-name="Edieresis" unicode="&#xcb;" horiz-adv-x="660" 
d="M632 197l-24 -197h-573v43q54 0 73.5 15t19.5 68v397q0 57 -16 73.5t-77 16.5v44h562l6 -181h-51q-12 71 -38 94.5t-106 23.5h-132v-230h89q75 0 92 13.5t17 71.5h47v-231h-47q0 63 -17 77.5t-92 14.5h-89v-249h118q97 0 131.5 26t58.5 110h48zM241 833q36 0 55.5 -17.5
t19.5 -48.5q0 -32 -19.5 -50t-55.5 -18q-35 0 -54.5 18t-19.5 49t19 49t55 18zM461 834q36 0 55.5 -17.5t19.5 -48.5q0 -32 -19.5 -50t-55.5 -18q-35 0 -54.5 18t-19.5 49t19 49t55 18z" />
    <glyph glyph-name="Igrave" unicode="&#xcc;" horiz-adv-x="405" 
d="M128 144v367q0 63 -15.5 83t-77.5 20v43h335v-43q-63 0 -78 -20t-15 -83v-367q0 -66 13.5 -83.5t75.5 -17.5v-43h-331v43q64 0 78.5 17t14.5 84zM207 831l101 -133h-65l-157 101v32h121z" />
    <glyph glyph-name="Iacute" unicode="&#xcd;" horiz-adv-x="405" 
d="M128 144v367q0 63 -15.5 83t-77.5 20v43h335v-43q-63 0 -78 -20t-15 -83v-367q0 -66 13.5 -83.5t75.5 -17.5v-43h-331v43q64 0 78.5 17t14.5 84zM98 698l101 133h121v-32l-157 -101h-65z" />
    <glyph glyph-name="Icircumflex" unicode="&#xce;" horiz-adv-x="405" 
d="M128 144v367q0 63 -15.5 83t-77.5 20v43h335v-43q-63 0 -78 -20t-15 -83v-367q0 -66 13.5 -83.5t75.5 -17.5v-43h-331v43q64 0 78.5 17t14.5 84zM369 698h-62l-104 68l-102 -68h-63l118 139h93z" />
    <glyph glyph-name="Idieresis" unicode="&#xcf;" horiz-adv-x="405" 
d="M128 144v367q0 63 -15.5 83t-77.5 20v43h335v-43q-63 0 -78 -20t-15 -83v-367q0 -66 13.5 -83.5t75.5 -17.5v-43h-331v43q64 0 78.5 17t14.5 84zM92 833q36 0 55.5 -17.5t19.5 -48.5q0 -32 -19.5 -50t-55.5 -18q-35 0 -54.5 18t-19.5 49t19 49t55 18zM312 834
q36 0 55.5 -17.5t19.5 -48.5q0 -32 -19.5 -50t-55.5 -18q-35 0 -54.5 18t-19.5 49t19 49t55 18z" />
    <glyph glyph-name="Eth" unicode="&#xd0;" horiz-adv-x="765" 
d="M43 305v65h89v159q0 53 -18.5 67.5t-74.5 14.5v46h288q65 0 118.5 -7.5t107.5 -28.5t90.5 -55.5t59 -92t22.5 -133.5q0 -340 -394 -340h-292v43q61 0 77 16t16 78v168h-89zM280 599v-229h152v-65h-152v-247q16 -1 46 -1q60 0 101.5 11.5t74.5 41t49 84t16 135.5
q0 271 -248 271q-22 0 -39 -1z" />
    <glyph glyph-name="Ntilde" unicode="&#xd1;" horiz-adv-x="795" 
d="M777 657v-43q-31 0 -50 -8.5t-27.5 -28t-10.5 -38.5t-2 -54v-492h-115l-383 516h-5v-347q0 -75 17 -97t74 -22v-43h-251v43q60 0 77 22t17 97v403q-24 30 -42 39.5t-52 9.5v43h240l351 -471h5v299q0 29 -1 44t-6 34t-14.5 28.5t-28 16t-45.5 6.5v43h252zM551 816h38
q-11 -58 -35.5 -84t-67.5 -26q-19 0 -68.5 14.5t-70.5 14.5q-40 0 -53 -34h-39q8 51 35 81.5t66 30.5q19 0 70.5 -14.5t74.5 -14.5q37 0 50 32z" />
    <glyph glyph-name="Ograve" unicode="&#xd2;" horiz-adv-x="748" 
d="M703 338q0 -165 -86 -258.5t-243 -93.5q-158 0 -243.5 89.5t-85.5 253.5q0 158 87.5 249t241.5 91q156 0 242.5 -87.5t86.5 -243.5zM547 335q0 137 -47 210.5t-129 73.5q-80 0 -125 -74t-45 -210q0 -144 43.5 -220.5t130.5 -76.5q88 0 130 72t42 225zM377 831l101 -133
h-65l-157 101v32h121z" />
    <glyph glyph-name="Oacute" unicode="&#xd3;" horiz-adv-x="748" 
d="M703 338q0 -165 -86 -258.5t-243 -93.5q-158 0 -243.5 89.5t-85.5 253.5q0 158 87.5 249t241.5 91q156 0 242.5 -87.5t86.5 -243.5zM547 335q0 137 -47 210.5t-129 73.5q-80 0 -125 -74t-45 -210q0 -144 43.5 -220.5t130.5 -76.5q88 0 130 72t42 225zM268 698l101 133
h121v-32l-157 -101h-65z" />
    <glyph glyph-name="Ocircumflex" unicode="&#xd4;" horiz-adv-x="748" 
d="M703 338q0 -165 -86 -258.5t-243 -93.5q-158 0 -243.5 89.5t-85.5 253.5q0 158 87.5 249t241.5 91q156 0 242.5 -87.5t86.5 -243.5zM547 335q0 137 -47 210.5t-129 73.5q-80 0 -125 -74t-45 -210q0 -144 43.5 -220.5t130.5 -76.5q88 0 130 72t42 225zM539 698h-62
l-104 68l-102 -68h-63l118 139h93z" />
    <glyph glyph-name="Otilde" unicode="&#xd5;" horiz-adv-x="748" 
d="M703 338q0 -165 -86 -258.5t-243 -93.5q-158 0 -243.5 89.5t-85.5 253.5q0 158 87.5 249t241.5 91q156 0 242.5 -87.5t86.5 -243.5zM547 335q0 137 -47 210.5t-129 73.5q-80 0 -125 -74t-45 -210q0 -144 43.5 -220.5t130.5 -76.5q88 0 130 72t42 225zM507 816h38
q-11 -58 -35.5 -84t-67.5 -26q-19 0 -68.5 14.5t-70.5 14.5q-40 0 -53 -34h-39q8 51 35 81.5t66 30.5q19 0 70.5 -14.5t74.5 -14.5q37 0 50 32z" />
    <glyph glyph-name="Odieresis" unicode="&#xd6;" horiz-adv-x="748" 
d="M703 338q0 -165 -86 -258.5t-243 -93.5q-158 0 -243.5 89.5t-85.5 253.5q0 158 87.5 249t241.5 91q156 0 242.5 -87.5t86.5 -243.5zM547 335q0 137 -47 210.5t-129 73.5q-80 0 -125 -74t-45 -210q0 -144 43.5 -220.5t130.5 -76.5q88 0 130 72t42 225zM262 833
q36 0 55.5 -17.5t19.5 -48.5q0 -32 -19.5 -50t-55.5 -18q-35 0 -54.5 18t-19.5 49t19 49t55 18zM482 834q36 0 55.5 -17.5t19.5 -48.5q0 -32 -19.5 -50t-55.5 -18q-35 0 -54.5 18t-19.5 49t19 49t55 18z" />
    <glyph glyph-name="multiply" unicode="&#xd7;" horiz-adv-x="700" 
d="M650 22l-62 -65l-238 237l-236 -236l-63 63l235 237l-236 237l65 62l235 -235l237 235l63 -62l-235 -237z" />
    <glyph glyph-name="Oslash" unicode="&#xd8;" horiz-adv-x="749" 
d="M132 -16l-50 42l45 53q-81 90 -81 250q0 158 87.5 249t241.5 91q124 0 204 -56l53 62l50 -42l-54 -63q76 -87 76 -232q0 -165 -86 -258.5t-243 -93.5q-118 0 -198 51zM202 335q0 -88 16 -149l291 344q-45 89 -137 89q-80 0 -125 -74t-45 -210zM548 335q0 65 -13 124
l-291 -343q44 -78 132 -78t130 72t42 225z" />
    <glyph glyph-name="Ugrave" unicode="&#xd9;" horiz-adv-x="799" 
d="M787 657v-43q-63 0 -79 -23t-16 -103v-224q0 -142 -65 -210t-211 -68q-156 0 -225 61t-69 200v279q0 53 -18 70.5t-76 17.5v43h337v-43q-60 0 -77 -18t-17 -75v-256q0 -103 37 -149t133 -46q95 0 137.5 43t42.5 145v227q0 82 -16 105.5t-78 23.5v43h260zM452 831
l101 -133h-65l-157 101v32h121z" />
    <glyph glyph-name="Uacute" unicode="&#xda;" horiz-adv-x="799" 
d="M787 657v-43q-63 0 -79 -23t-16 -103v-224q0 -142 -65 -210t-211 -68q-156 0 -225 61t-69 200v279q0 53 -18 70.5t-76 17.5v43h337v-43q-60 0 -77 -18t-17 -75v-256q0 -103 37 -149t133 -46q95 0 137.5 43t42.5 145v227q0 82 -16 105.5t-78 23.5v43h260zM343 698l101 133
h121v-32l-157 -101h-65z" />
    <glyph glyph-name="Ucircumflex" unicode="&#xdb;" horiz-adv-x="799" 
d="M787 657v-43q-63 0 -79 -23t-16 -103v-224q0 -142 -65 -210t-211 -68q-156 0 -225 61t-69 200v279q0 53 -18 70.5t-76 17.5v43h337v-43q-60 0 -77 -18t-17 -75v-256q0 -103 37 -149t133 -46q95 0 137.5 43t42.5 145v227q0 82 -16 105.5t-78 23.5v43h260zM614 698h-62
l-104 68l-102 -68h-63l118 139h93z" />
    <glyph glyph-name="Udieresis" unicode="&#xdc;" horiz-adv-x="799" 
d="M787 657v-43q-63 0 -79 -23t-16 -103v-224q0 -142 -65 -210t-211 -68q-156 0 -225 61t-69 200v279q0 53 -18 70.5t-76 17.5v43h337v-43q-60 0 -77 -18t-17 -75v-256q0 -103 37 -149t133 -46q95 0 137.5 43t42.5 145v227q0 82 -16 105.5t-78 23.5v43h260zM337 833
q36 0 55.5 -17.5t19.5 -48.5q0 -32 -19.5 -50t-55.5 -18q-35 0 -54.5 18t-19.5 49t19 49t55 18zM557 834q36 0 55.5 -17.5t19.5 -48.5q0 -32 -19.5 -50t-55.5 -18q-35 0 -54.5 18t-19.5 49t19 49t55 18z" />
    <glyph glyph-name="Yacute" unicode="&#xdd;" horiz-adv-x="676" 
d="M686 657v-43q-45 -2 -67.5 -17t-53.5 -69l-150 -279v-112q0 -63 19 -78.5t82 -15.5v-43h-349v43q67 0 83 14.5t16 79.5v113l-135 229q-53 90 -78 112.5t-63 22.5v43h311v-43q-38 0 -50 -5.5t-12 -17.5q0 -16 15 -43l84 -152l38 -81h7l123 242q10 16 10 32q0 12 -11 18.5
t-46 6.5v43h227zM251 698l101 133h121v-32l-157 -101h-65z" />
    <glyph glyph-name="Thorn" unicode="&#xde;" horiz-adv-x="641" 
d="M128 144v367q0 63 -15.5 83t-77.5 20v43h335v-43q-59 0 -75.5 -17t-17.5 -68q60 4 86 4q43 0 77.5 -4.5t67.5 -16t55 -31t35 -51t13 -73.5q0 -112 -71.5 -160.5t-187.5 -48.5q-29 0 -75 11v-15q0 -66 13.5 -83.5t75.5 -17.5v-43h-331v43q64 0 78.5 17t14.5 84zM322 484
q-20 0 -45 -3v-271q24 -4 49 -4q72 0 101.5 29t29.5 115q0 71 -30 102.5t-105 31.5z" />
    <glyph glyph-name="germandbls" unicode="&#xdf;" horiz-adv-x="664" 
d="M437 563q0 54 -24 79.5t-81 25.5t-76 -25.5t-19 -82.5v-560h-231v40q57 0 72.5 16t15.5 78v278h-81v61h81q0 65 10 102t46 75q31 34 75 50.5t122 16.5q105 0 166.5 -39.5t61.5 -109.5q0 -60 -40 -97.5t-124 -59.5v-4q40 -6 77 -21t71 -40t54 -66t20 -91q0 -52 -20 -91
t-54.5 -61t-75 -32.5t-85.5 -10.5q-56 0 -92 25t-36 64q0 28 13.5 43.5t36.5 15.5q21 0 36 -15t22.5 -33.5t19.5 -33.5t28 -15q28 0 44 27.5t16 112.5q0 169 -173 188v64q66 9 95 36.5t29 89.5z" />
    <glyph glyph-name="agrave" unicode="&#xe0;" horiz-adv-x="528" 
d="M302 53h-4q-4 -3 -13.5 -11.5t-13 -11t-11.5 -9t-12 -8.5t-11.5 -7t-12.5 -6.5l-13.5 -4t-15.5 -3.5t-16.5 -2t-19.5 -1q-58 0 -92 28t-34 86q0 29 9 52.5t27 41t36.5 30t47 23t48 16t50.5 13.5t44 12v48q0 63 -12.5 83t-49.5 20q-30 0 -40.5 -14.5t-10.5 -56.5
q0 -32 -18.5 -48t-47.5 -16q-24 0 -42.5 17.5t-18.5 49.5q0 47 52.5 79.5t136.5 32.5q194 0 194 -155v-217q0 -29 7 -38.5t24 -9.5q21 0 48 27l22 -22q-28 -41 -59 -61t-83 -20q-48 0 -68 14t-27 49zM295 97v155q-65 -20 -92 -44t-27 -77q0 -71 46 -71q35 0 73 37zM247 684
l69 -163h-49l-133 131v32h113z" />
    <glyph glyph-name="aacute" unicode="&#xe1;" horiz-adv-x="528" 
d="M302 53h-4q-4 -3 -13.5 -11.5t-13 -11t-11.5 -9t-12 -8.5t-11.5 -7t-12.5 -6.5l-13.5 -4t-15.5 -3.5t-16.5 -2t-19.5 -1q-58 0 -92 28t-34 86q0 29 9 52.5t27 41t36.5 30t47 23t48 16t50.5 13.5t44 12v48q0 63 -12.5 83t-49.5 20q-30 0 -40.5 -14.5t-10.5 -56.5
q0 -32 -18.5 -48t-47.5 -16q-24 0 -42.5 17.5t-18.5 49.5q0 47 52.5 79.5t136.5 32.5q194 0 194 -155v-217q0 -29 7 -38.5t24 -9.5q21 0 48 27l22 -22q-28 -41 -59 -61t-83 -20q-48 0 -68 14t-27 49zM295 97v155q-65 -20 -92 -44t-27 -77q0 -71 46 -71q35 0 73 37zM198 521
l69 163h113v-32l-133 -131h-49z" />
    <glyph glyph-name="acircumflex" unicode="&#xe2;" horiz-adv-x="528" 
d="M302 53h-4q-4 -3 -13.5 -11.5t-13 -11t-11.5 -9t-12 -8.5t-11.5 -7t-12.5 -6.5l-13.5 -4t-15.5 -3.5t-16.5 -2t-19.5 -1q-58 0 -92 28t-34 86q0 29 9 52.5t27 41t36.5 30t47 23t48 16t50.5 13.5t44 12v48q0 63 -12.5 83t-49.5 20q-30 0 -40.5 -14.5t-10.5 -56.5
q0 -32 -18.5 -48t-47.5 -16q-24 0 -42.5 17.5t-18.5 49.5q0 47 52.5 79.5t136.5 32.5q194 0 194 -155v-217q0 -29 7 -38.5t24 -9.5q21 0 48 27l22 -22q-28 -41 -59 -61t-83 -20q-48 0 -68 14t-27 49zM295 97v155q-65 -20 -92 -44t-27 -77q0 -71 46 -71q35 0 73 37zM410 521
h-58l-94 91l-95 -91h-59l107 163h93z" />
    <glyph glyph-name="atilde" unicode="&#xe3;" horiz-adv-x="528" 
d="M302 53h-4q-4 -3 -13.5 -11.5t-13 -11t-11.5 -9t-12 -8.5t-11.5 -7t-12.5 -6.5l-13.5 -4t-15.5 -3.5t-16.5 -2t-19.5 -1q-58 0 -92 28t-34 86q0 29 9 52.5t27 41t36.5 30t47 23t48 16t50.5 13.5t44 12v48q0 63 -12.5 83t-49.5 20q-30 0 -40.5 -14.5t-10.5 -56.5
q0 -32 -18.5 -48t-47.5 -16q-24 0 -42.5 17.5t-18.5 49.5q0 47 52.5 79.5t136.5 32.5q194 0 194 -155v-217q0 -29 7 -38.5t24 -9.5q21 0 48 27l22 -22q-28 -41 -59 -61t-83 -20q-48 0 -68 14t-27 49zM295 97v155q-65 -20 -92 -44t-27 -77q0 -71 46 -71q35 0 73 37zM389 657
h38q-12 -60 -37.5 -90.5t-70.5 -30.5q-31 0 -71 19.5t-60 19.5q-40 0 -52 -42h-39q9 52 37 86t69 34q33 0 72 -19.5t59 -19.5q42 0 55 43z" />
    <glyph glyph-name="adieresis" unicode="&#xe4;" horiz-adv-x="528" 
d="M302 53h-4q-4 -3 -13.5 -11.5t-13 -11t-11.5 -9t-12 -8.5t-11.5 -7t-12.5 -6.5l-13.5 -4t-15.5 -3.5t-16.5 -2t-19.5 -1q-58 0 -92 28t-34 86q0 29 9 52.5t27 41t36.5 30t47 23t48 16t50.5 13.5t44 12v48q0 63 -12.5 83t-49.5 20q-30 0 -40.5 -14.5t-10.5 -56.5
q0 -32 -18.5 -48t-47.5 -16q-24 0 -42.5 17.5t-18.5 49.5q0 47 52.5 79.5t136.5 32.5q194 0 194 -155v-217q0 -29 7 -38.5t24 -9.5q21 0 48 27l22 -22q-28 -41 -59 -61t-83 -20q-48 0 -68 14t-27 49zM295 97v155q-65 -20 -92 -44t-27 -77q0 -71 46 -71q35 0 73 37zM144 697
q36 0 56 -19.5t20 -52.5q0 -34 -20 -54t-56 -20q-35 0 -55 20t-20 53q0 34 19.5 53.5t55.5 19.5zM368 698q36 0 56 -19.5t20 -52.5q0 -34 -20 -54t-56 -20q-35 0 -55 20t-20 53t19.5 53t55.5 20z" />
    <glyph glyph-name="aring" unicode="&#xe5;" horiz-adv-x="528" 
d="M302 53h-4q-4 -3 -13.5 -11.5t-13 -11t-11.5 -9t-12 -8.5t-11.5 -7t-12.5 -6.5l-13.5 -4t-15.5 -3.5t-16.5 -2t-19.5 -1q-58 0 -92 28t-34 86q0 29 9 52.5t27 41t36.5 30t47 23t48 16t50.5 13.5t44 12v48q0 63 -12.5 83t-49.5 20q-30 0 -40.5 -14.5t-10.5 -56.5
q0 -32 -18.5 -48t-47.5 -16q-24 0 -42.5 17.5t-18.5 49.5q0 47 52.5 79.5t136.5 32.5q194 0 194 -155v-217q0 -29 7 -38.5t24 -9.5q21 0 48 27l22 -22q-28 -41 -59 -61t-83 -20q-48 0 -68 14t-27 49zM295 97v155q-65 -20 -92 -44t-27 -77q0 -71 46 -71q35 0 73 37zM368 633
q0 -50 -31 -77.5t-80 -27.5q-47 0 -79 28t-32 78q0 47 32 76t79 29q48 0 79.5 -29t31.5 -77zM303 634q0 24 -11.5 39t-34.5 15q-45 0 -45 -54t45 -54q46 0 46 54z" />
    <glyph glyph-name="ae" unicode="&#xe6;" horiz-adv-x="760" 
d="M346 66h-6q-42 -38 -83 -57.5t-98 -19.5q-58 0 -92 28t-34 86q0 29 9 53t28 41.5t37 30.5t48 24t49 17t51 14.5l44 11.5v44q0 60 -14.5 81.5t-43.5 21.5q-59 0 -59 -71q0 -32 -18.5 -48t-47.5 -16q-24 0 -42.5 17t-18.5 47q0 50 56.5 82.5t133.5 32.5q94 0 135 -62h5
q58 61 137 61q94 0 149.5 -58.5t56.5 -169.5h-294q0 -85 32 -122.5t96 -37.5q54 0 87 16.5t59 50.5l26 -18q-18 -34 -26 -47.5t-29 -40t-41 -38t-53.5 -21.5t-75.5 -10q-109 0 -163 77zM324 106q-26 60 -26 145q-62 -20 -92 -44.5t-30 -75.5q0 -71 46 -71q54 0 102 46z
M433 304h138q0 137 -63 137q-39 0 -55.5 -31.5t-19.5 -105.5z" />
    <glyph glyph-name="ccedilla" unicode="&#xe7;" horiz-adv-x="496" 
d="M454 169l26 -16q-18 -38 -32 -60.5t-38 -48t-57.5 -38.5t-78.5 -16l-10 -43q12 2 24 2q43 0 68.5 -20t25.5 -57q0 -46 -32 -69.5t-85 -23.5q-45 0 -92 37l18 32q31 -21 65 -21q50 0 50 41q0 35 -42 35l-33 -3l-16 16l19 74q-95 5 -148.5 66.5t-53.5 174.5q0 115 65.5 185
t193.5 70q80 0 129 -31.5t49 -80.5q0 -30 -21 -46.5t-53 -16.5q-29 0 -45.5 20t-22 43.5t-20.5 43.5t-42 20q-48 0 -69 -39.5t-21 -123.5q0 -91 29 -135t104 -44q51 0 83 17t63 56z" />
    <glyph glyph-name="egrave" unicode="&#xe8;" horiz-adv-x="515" 
d="M463 164l26 -18l-26.5 -47.5t-29.5 -40.5t-41.5 -37.5t-55 -21.5t-77.5 -10q-110 0 -168.5 63t-58.5 182q0 123 68 187t172 64q97 0 153.5 -58.5t57.5 -169.5h-304q0 -85 33.5 -122.5t99.5 -37.5q97 0 151 67zM178 304h148q0 137 -68 137q-41 0 -59 -31.5t-21 -105.5z
M255 684l69 -163h-49l-133 131v32h113z" />
    <glyph glyph-name="eacute" unicode="&#xe9;" horiz-adv-x="515" 
d="M463 164l26 -18l-26.5 -47.5t-29.5 -40.5t-41.5 -37.5t-55 -21.5t-77.5 -10q-110 0 -168.5 63t-58.5 182q0 123 68 187t172 64q97 0 153.5 -58.5t57.5 -169.5h-304q0 -85 33.5 -122.5t99.5 -37.5q97 0 151 67zM178 304h148q0 137 -68 137q-41 0 -59 -31.5t-21 -105.5z
M206 521l69 163h113v-32l-133 -131h-49z" />
    <glyph glyph-name="ecircumflex" unicode="&#xea;" horiz-adv-x="515" 
d="M463 164l26 -18l-26.5 -47.5t-29.5 -40.5t-41.5 -37.5t-55 -21.5t-77.5 -10q-110 0 -168.5 63t-58.5 182q0 123 68 187t172 64q97 0 153.5 -58.5t57.5 -169.5h-304q0 -85 33.5 -122.5t99.5 -37.5q97 0 151 67zM178 304h148q0 137 -68 137q-41 0 -59 -31.5t-21 -105.5z
M418 521h-58l-94 91l-95 -91h-59l107 163h93z" />
    <glyph glyph-name="edieresis" unicode="&#xeb;" horiz-adv-x="515" 
d="M463 164l26 -18l-26.5 -47.5t-29.5 -40.5t-41.5 -37.5t-55 -21.5t-77.5 -10q-110 0 -168.5 63t-58.5 182q0 123 68 187t172 64q97 0 153.5 -58.5t57.5 -169.5h-304q0 -85 33.5 -122.5t99.5 -37.5q97 0 151 67zM178 304h148q0 137 -68 137q-41 0 -59 -31.5t-21 -105.5z
M152 697q36 0 56 -19.5t20 -52.5q0 -34 -20 -54t-56 -20q-35 0 -55 20t-20 53q0 34 19.5 53.5t55.5 19.5zM376 698q36 0 56 -19.5t20 -52.5q0 -34 -20 -54t-56 -20q-35 0 -55 20t-20 53t19.5 53t55.5 20z" />
    <glyph glyph-name="igrave" unicode="&#xec;" horiz-adv-x="326" 
d="M311 40v-40h-293v40q48 0 62 13.5t14 56.5v255q0 31 -12.5 40t-38.5 9l-26 -2v42l150 28h67v-369q0 -45 14 -59t63 -14zM141 684l69 -163h-49l-133 131v32h113z" />
    <glyph glyph-name="iacute" unicode="&#xed;" horiz-adv-x="326" 
d="M311 40v-40h-293v40q48 0 62 13.5t14 56.5v255q0 31 -12.5 40t-38.5 9l-26 -2v42l150 28h67v-369q0 -45 14 -59t63 -14zM92 521l69 163h113v-32l-133 -131h-49z" />
    <glyph glyph-name="icircumflex" unicode="&#xee;" horiz-adv-x="326" 
d="M311 40v-40h-293v40q48 0 62 13.5t14 56.5v255q0 31 -12.5 40t-38.5 9l-26 -2v42l150 28h67v-369q0 -45 14 -59t63 -14zM296 521h-58l-88 86l-89 -86h-59l103 153h89z" />
    <glyph glyph-name="idieresis" unicode="&#xef;" horiz-adv-x="326" 
d="M46 697q36 0 56 -19.5t20 -52.5q0 -34 -20 -54t-56 -20q-35 0 -55 20t-20 53q0 34 19.5 53.5t55.5 19.5zM253 698q36 0 56 -19.5t20 -52.5q0 -34 -20 -54t-56 -20q-35 0 -55 20t-20 53t20 53t55 20zM311 40v-40h-293v40q48 0 62 13.5t14 56.5v255q0 31 -12.5 40t-38.5 9
l-26 -2v42l150 28h67v-369q0 -45 14 -59t63 -14z" />
    <glyph glyph-name="eth" unicode="&#xf0;" horiz-adv-x="560" 
d="M222 522l-21 39l92 46q-45 35 -105 35q-66 0 -100 -15l-16 32q70 59 162 59q101 0 167 -56l86 43l20 -39l-74 -38q81 -104 81 -317q0 -165 -64 -243t-178 -78q-240 0 -240 245q0 105 61.5 169.5t161.5 64.5q68 0 119 -48l7 3q-11 92 -55 150zM263 419q-79 0 -79 -166
q0 -213 93 -213q86 2 86 197q0 182 -100 182z" />
    <glyph glyph-name="ntilde" unicode="&#xf1;" horiz-adv-x="646" 
d="M559 290v-178q0 -42 13.5 -57t55.5 -15v-40h-278v40q43 0 54.5 14t11.5 58v156q0 68 -19.5 94.5t-61.5 26.5q-45 0 -97 -43v-234q0 -44 12 -58t59 -14v-40h-284v40q47 0 58 13.5t11 58.5v257q0 27 -9.5 36t-31.5 9l-27 -2v41l154 29h55v-82h4q44 43 78.5 64t75.5 21
q80 0 123 -49t43 -146zM439 657h38q-12 -60 -37.5 -90.5t-70.5 -30.5q-31 0 -71 19.5t-60 19.5q-40 0 -52 -42h-39q9 52 37 86t69 34q33 0 72 -19.5t59 -19.5q42 0 55 43z" />
    <glyph glyph-name="ograve" unicode="&#xf2;" horiz-adv-x="548" 
d="M277 485q118 0 178.5 -62t60.5 -172q0 -128 -62 -194.5t-180 -66.5q-242 0 -242 250q0 110 62 177.5t183 67.5zM269 437q-85 0 -85 -187q0 -108 22.5 -159.5t70.5 -51.5t67.5 48.5t19.5 155.5q0 194 -95 194zM268 684l69 -163h-49l-133 131v32h113z" />
    <glyph glyph-name="oacute" unicode="&#xf3;" horiz-adv-x="548" 
d="M277 485q118 0 178.5 -62t60.5 -172q0 -128 -62 -194.5t-180 -66.5q-242 0 -242 250q0 110 62 177.5t183 67.5zM269 437q-85 0 -85 -187q0 -108 22.5 -159.5t70.5 -51.5t67.5 48.5t19.5 155.5q0 194 -95 194zM219 521l69 163h113v-32l-133 -131h-49z" />
    <glyph glyph-name="ocircumflex" unicode="&#xf4;" horiz-adv-x="548" 
d="M277 485q118 0 178.5 -62t60.5 -172q0 -128 -62 -194.5t-180 -66.5q-242 0 -242 250q0 110 62 177.5t183 67.5zM269 437q-85 0 -85 -187q0 -108 22.5 -159.5t70.5 -51.5t67.5 48.5t19.5 155.5q0 194 -95 194zM431 521h-58l-94 91l-95 -91h-59l107 163h93z" />
    <glyph glyph-name="otilde" unicode="&#xf5;" horiz-adv-x="548" 
d="M277 485q118 0 178.5 -62t60.5 -172q0 -128 -62 -194.5t-180 -66.5q-242 0 -242 250q0 110 62 177.5t183 67.5zM269 437q-85 0 -85 -187q0 -108 22.5 -159.5t70.5 -51.5t67.5 48.5t19.5 155.5q0 194 -95 194zM410 657h38q-12 -60 -37.5 -90.5t-70.5 -30.5q-31 0 -71 19.5
t-60 19.5q-40 0 -52 -42h-39q9 52 37 86t69 34q33 0 72 -19.5t59 -19.5q42 0 55 43z" />
    <glyph glyph-name="odieresis" unicode="&#xf6;" horiz-adv-x="548" 
d="M277 485q118 0 178.5 -62t60.5 -172q0 -128 -62 -194.5t-180 -66.5q-242 0 -242 250q0 110 62 177.5t183 67.5zM269 437q-85 0 -85 -187q0 -108 22.5 -159.5t70.5 -51.5t67.5 48.5t19.5 155.5q0 194 -95 194zM165 697q36 0 56 -19.5t20 -52.5q0 -34 -20 -54t-56 -20
q-35 0 -55 20t-20 53q0 34 20 53.5t55 19.5zM389 698q36 0 56 -19.5t20 -52.5q0 -34 -20 -54t-56 -20q-35 0 -55 20t-20 53t20 53t55 20z" />
    <glyph glyph-name="divide" unicode="&#xf7;" horiz-adv-x="673" 
d="M406 470q0 -27 -21 -47.5t-48 -20.5q-29 0 -49 20t-20 49t20.5 49t49.5 20q26 0 47 -21.5t21 -48.5zM607 213h-541v92h541v-92zM406 45q0 -27 -21 -47t-48 -20q-29 0 -49 19.5t-20 48.5t20.5 49t49.5 20q27 0 47.5 -21t20.5 -49z" />
    <glyph glyph-name="oslash" unicode="&#xf8;" horiz-adv-x="548" 
d="M277 485q90 0 149 -39l43 47l36 -31l-42 -47q53 -61 53 -164q0 -128 -62 -194.5t-180 -66.5q-94 0 -152 37l-49 -54l-36 30l49 55q-54 62 -54 182q0 110 62 177.5t183 67.5zM269 437q-85 0 -85 -187q0 -43 3 -76l164 186q-23 77 -82 77zM364 243q0 22 -2 56l-164 -185
q21 -75 79 -75q48 0 67.5 48.5t19.5 155.5z" />
    <glyph glyph-name="ugrave" unicode="&#xf9;" horiz-adv-x="631" 
d="M615 60v-37l-173 -29h-39v87h-4q-50 -53 -84.5 -72t-83.5 -19q-77 0 -112.5 39.5t-35.5 136.5v193q0 44 -13 54t-57 11v41l166 13h47v-283q0 -66 16.5 -86.5t53.5 -20.5q30 0 51 10t51 35v230q0 41 -16 51t-69 10v41l187 13h41v-343q0 -47 13.5 -61t54.5 -14h6zM303 684
l69 -163h-49l-133 131v32h113z" />
    <glyph glyph-name="uacute" unicode="&#xfa;" horiz-adv-x="631" 
d="M615 60v-37l-173 -29h-39v87h-4q-50 -53 -84.5 -72t-83.5 -19q-77 0 -112.5 39.5t-35.5 136.5v193q0 44 -13 54t-57 11v41l166 13h47v-283q0 -66 16.5 -86.5t53.5 -20.5q30 0 51 10t51 35v230q0 41 -16 51t-69 10v41l187 13h41v-343q0 -47 13.5 -61t54.5 -14h6zM254 521
l69 163h113v-32l-133 -131h-49z" />
    <glyph glyph-name="ucircumflex" unicode="&#xfb;" horiz-adv-x="631" 
d="M615 60v-37l-173 -29h-39v87h-4q-50 -53 -84.5 -72t-83.5 -19q-77 0 -112.5 39.5t-35.5 136.5v193q0 44 -13 54t-57 11v41l166 13h47v-283q0 -66 16.5 -86.5t53.5 -20.5q30 0 51 10t51 35v230q0 41 -16 51t-69 10v41l187 13h41v-343q0 -47 13.5 -61t54.5 -14h6zM466 521
h-58l-94 91l-95 -91h-59l107 163h93z" />
    <glyph glyph-name="udieresis" unicode="&#xfc;" horiz-adv-x="631" 
d="M615 60v-37l-173 -29h-39v87h-4q-50 -53 -84.5 -72t-83.5 -19q-77 0 -112.5 39.5t-35.5 136.5v193q0 44 -13 54t-57 11v41l166 13h47v-283q0 -66 16.5 -86.5t53.5 -20.5q30 0 51 10t51 35v230q0 41 -16 51t-69 10v41l187 13h41v-343q0 -47 13.5 -61t54.5 -14h6zM200 697
q36 0 56 -19.5t20 -52.5q0 -34 -20 -54t-56 -20q-35 0 -55 20t-20 53q0 34 19.5 53.5t55.5 19.5zM424 698q36 0 56 -19.5t20 -52.5q0 -34 -20 -54t-56 -20q-35 0 -55 20t-20 53t19.5 53t55.5 20z" />
    <glyph glyph-name="yacute" unicode="&#xfd;" horiz-adv-x="530" 
d="M552 473v-39q-28 0 -41.5 -11.5t-26.5 -40.5l-178 -398q-46 -105 -96.5 -152t-115.5 -47q-83 0 -83 65q0 24 13.5 37.5t35.5 13.5q18 0 45 -12t44 -12q32 0 59 38.5t27 71.5q0 28 -52 129l-143 283q-18 35 -61 35v39h270v-40q-31 0 -43 -6t-12 -21q0 -12 15 -42l90 -181
l19 -51h5l91 259q3 12 3 19q0 24 -50 24v39h185zM228 521l69 163h113v-32l-133 -131h-49z" />
    <glyph glyph-name="thorn" unicode="&#xfe;" horiz-adv-x="571" 
d="M215 706v-304h5q41 44 76 64t81 20q75 0 118 -55.5t43 -169.5q0 -124 -63.5 -198t-157.5 -74q-59 0 -99 26h-3v-116q0 -48 19 -63t78 -15v-41h-313v40q46 0 59.5 14.5t13.5 57.5v693q0 31 -7 42t-31 11l-32 -2v42l154 28h59zM215 343v-248q33 -50 77 -50q90 0 90 188
q0 84 -18.5 121.5t-56.5 37.5q-43 0 -92 -49z" />
    <glyph glyph-name="ydieresis" unicode="&#xff;" horiz-adv-x="530" 
d="M552 473v-39q-28 0 -41.5 -11.5t-26.5 -40.5l-178 -398q-46 -105 -96.5 -152t-115.5 -47q-83 0 -83 65q0 24 13.5 37.5t35.5 13.5q18 0 45 -12t44 -12q32 0 59 38.5t27 71.5q0 28 -52 129l-143 283q-18 35 -61 35v39h270v-40q-31 0 -43 -6t-12 -21q0 -12 15 -42l90 -181
l19 -51h5l91 259q3 12 3 19q0 24 -50 24v39h185zM174 697q36 0 56 -19.5t20 -52.5q0 -34 -20 -54t-56 -20q-35 0 -55 20t-20 53q0 34 19.5 53.5t55.5 19.5zM398 698q36 0 56 -19.5t20 -52.5q0 -34 -20 -54t-56 -20q-35 0 -55 20t-20 53t19.5 53t55.5 20z" />
    <glyph glyph-name="Amacron" unicode="&#x100;" horiz-adv-x="749" 
d="M740 0h-321v43q59 0 59 32q0 25 -20 76l-23 60h-230l-29 -73q-14 -40 -14 -58q0 -23 14.5 -30t53.5 -7v-43h-228v43q38 0 58 19t43 78l217 522h105l216 -524q21 -50 43.5 -72.5t55.5 -22.5v-43zM417 263l-89 249h-4l-101 -249h194zM527 726h-314v78h314v-78z" />
    <glyph glyph-name="amacron" unicode="&#x101;" horiz-adv-x="528" 
d="M302 53h-4q-4 -3 -13.5 -11.5t-13 -11t-11.5 -9t-12 -8.5t-11.5 -7t-12.5 -6.5l-13.5 -4t-15.5 -3.5t-16.5 -2t-19.5 -1q-58 0 -92 28t-34 86q0 29 9 52.5t27 41t36.5 30t47 23t48 16t50.5 13.5t44 12v48q0 63 -12.5 83t-49.5 20q-30 0 -40.5 -14.5t-10.5 -56.5
q0 -32 -18.5 -48t-47.5 -16q-24 0 -42.5 17.5t-18.5 49.5q0 47 52.5 79.5t136.5 32.5q194 0 194 -155v-217q0 -29 7 -38.5t24 -9.5q21 0 48 27l22 -22q-28 -41 -59 -61t-83 -20q-48 0 -68 14t-27 49zM295 97v155q-65 -20 -92 -44t-27 -77q0 -71 46 -71q35 0 73 37zM402 555
h-290v75h290v-75z" />
    <glyph glyph-name="Abreve" unicode="&#x102;" horiz-adv-x="749" 
d="M740 0h-321v43q59 0 59 32q0 25 -20 76l-23 60h-230l-29 -73q-14 -40 -14 -58q0 -23 14.5 -30t53.5 -7v-43h-228v43q38 0 58 19t43 78l217 522h105l216 -524q21 -50 43.5 -72.5t55.5 -22.5v-43zM417 263l-89 249h-4l-101 -249h194zM486 850h42q-16 -150 -158 -150
q-153 0 -159 150h42q8 -34 40.5 -52.5t75.5 -18.5q42 0 75 18.5t42 52.5z" />
    <glyph glyph-name="abreve" unicode="&#x103;" horiz-adv-x="528" 
d="M302 53h-4q-4 -3 -13.5 -11.5t-13 -11t-11.5 -9t-12 -8.5t-11.5 -7t-12.5 -6.5l-13.5 -4t-15.5 -3.5t-16.5 -2t-19.5 -1q-58 0 -92 28t-34 86q0 29 9 52.5t27 41t36.5 30t47 23t48 16t50.5 13.5t44 12v48q0 63 -12.5 83t-49.5 20q-30 0 -40.5 -14.5t-10.5 -56.5
q0 -32 -18.5 -48t-47.5 -16q-24 0 -42.5 17.5t-18.5 49.5q0 47 52.5 79.5t136.5 32.5q194 0 194 -155v-217q0 -29 7 -38.5t24 -9.5q21 0 48 27l22 -22q-28 -41 -59 -61t-83 -20q-48 0 -68 14t-27 49zM295 97v155q-65 -20 -92 -44t-27 -77q0 -71 46 -71q35 0 73 37zM373 687
h40q-16 -158 -156 -158q-71 0 -112.5 40t-44.5 118h40q10 -44 38.5 -59.5t78.5 -15.5q49 0 75.5 15.5t40.5 59.5z" />
    <glyph glyph-name="Aogonek" unicode="&#x104;" horiz-adv-x="749" 
d="M546 -126l23 -28q-34 -34 -64.5 -50.5t-72.5 -16.5q-50 0 -81 24t-31 69q0 35 19 62.5t58 58.5l26.5 20.5l23.5 18t15.5 14t11.5 16t3 15.5q0 23 -19 74l-23 60h-230l-29 -73q-14 -34 -14 -59q0 -22 14.5 -29t53.5 -7v-43h-228v43q38 0 57 19t44 78l217 522h105l216 -524
q20 -50 42.5 -72.5t56.5 -22.5v-43h-200q-61 0 -92.5 -28t-31.5 -73q0 -54 57 -54q34 0 73 29zM417 263l-89 249h-4l-101 -249h194z" />
    <glyph glyph-name="aogonek" unicode="&#x105;" horiz-adv-x="528" 
d="M521 -126l23 -28q-33 -33 -63.5 -50t-71.5 -17q-51 0 -82.5 24.5t-31.5 62.5q0 31 15 57.5t29.5 38.5t39.5 28v4q-37 3 -54 16t-23 43h-4q-4 -3 -13.5 -11.5t-13 -11t-11.5 -9t-12 -8.5t-11.5 -7t-12.5 -6.5l-13.5 -4t-15.5 -3.5t-16.5 -2t-19.5 -1q-58 0 -92 28t-34 86
q0 29 9 52.5t27 41t36.5 30t47 23t48 16t50.5 13.5t44 12v48q0 63 -12.5 83t-49.5 20q-30 0 -40.5 -14.5t-10.5 -56.5q0 -32 -18.5 -48t-47.5 -16q-24 0 -42.5 17.5t-18.5 49.5q0 47 52.5 79.5t136.5 32.5q194 0 194 -155v-217q0 -29 7 -38.5t24 -9.5q21 0 48 27l22 -22
q-33 -49 -70 -67q-4 -3 -15.5 -11l-16.5 -11.5t-14 -11t-13 -13.5t-9.5 -15t-7.5 -19.5t-2 -22.5q0 -55 50 -55q27 0 41.5 5.5t38.5 23.5zM295 97v155q-65 -20 -92 -44t-27 -77q0 -71 46 -71q35 0 73 37z" />
    <glyph glyph-name="Cacute" unicode="&#x106;" horiz-adv-x="685" 
d="M620 185l32 -28q-29 -42 -52 -67.5t-57.5 -51.5t-79 -38t-102.5 -12q-158 0 -237 90.5t-79 242.5q0 168 92 258t247 90q62 0 110 -16.5t54 -16.5q23 0 32 33h43v-246h-48q-41 192 -193 192q-180 0 -180 -268q0 -138 50.5 -200t157.5 -62q70 0 116.5 24t93.5 76zM277 698
l101 133h121v-32l-157 -101h-65z" />
    <glyph glyph-name="cacute" unicode="&#x107;" horiz-adv-x="495" 
d="M453 169l26 -16q-37 -80 -84.5 -122t-138.5 -42q-106 0 -165.5 61t-59.5 176q0 118 64.5 189t189.5 71q84 0 133.5 -31t49.5 -79q0 -31 -20.5 -48t-51.5 -17t-48 20t-21.5 43.5t-21 43.5t-46.5 20q-85 0 -85 -164q0 -92 29 -135t106 -43q49 0 81.5 17.5t62.5 55.5z
M214 521l69 163h113v-32l-133 -131h-49z" />
    <glyph glyph-name="Ccircumflex" unicode="&#x108;" horiz-adv-x="685" 
d="M620 185l32 -28q-29 -42 -52 -67.5t-57.5 -51.5t-79 -38t-102.5 -12q-158 0 -237 90.5t-79 242.5q0 168 92 258t247 90q62 0 110 -16.5t54 -16.5q23 0 32 33h43v-246h-48q-41 192 -193 192q-180 0 -180 -268q0 -138 50.5 -200t157.5 -62q70 0 116.5 24t93.5 76zM546 698
h-62l-104 68l-102 -68h-63l118 139h93z" />
    <glyph glyph-name="ccircumflex" unicode="&#x109;" horiz-adv-x="495" 
d="M453 169l26 -16q-37 -80 -84.5 -122t-138.5 -42q-106 0 -165.5 61t-59.5 176q0 118 64.5 189t189.5 71q84 0 133.5 -31t49.5 -79q0 -31 -20.5 -48t-51.5 -17t-48 20t-21.5 43.5t-21 43.5t-46.5 20q-85 0 -85 -164q0 -92 29 -135t106 -43q49 0 81.5 17.5t62.5 55.5z
M426 521h-58l-94 91l-95 -91h-59l107 163h93z" />
    <glyph glyph-name="Cdotaccent" unicode="&#x10a;" horiz-adv-x="685" 
d="M620 185l32 -28q-29 -42 -52 -67.5t-57.5 -51.5t-79 -38t-102.5 -12q-158 0 -237 90.5t-79 242.5q0 168 92 258t247 90q62 0 110 -16.5t54 -16.5q23 0 32 33h43v-246h-48q-41 192 -193 192q-180 0 -180 -268q0 -138 50.5 -200t157.5 -62q70 0 116.5 24t93.5 76zM466 772
q0 -35 -22.5 -56t-62.5 -21q-42 0 -65 21t-23 56t23.5 55t64.5 20q40 0 62.5 -20t22.5 -55z" />
    <glyph glyph-name="cdotaccent" unicode="&#x10b;" horiz-adv-x="495" 
d="M453 169l26 -16q-37 -80 -84.5 -122t-138.5 -42q-106 0 -165.5 61t-59.5 176q0 118 64.5 189t189.5 71q84 0 133.5 -31t49.5 -79q0 -31 -20.5 -48t-51.5 -17t-48 20t-21.5 43.5t-21 43.5t-46.5 20q-85 0 -85 -164q0 -92 29 -135t106 -43q49 0 81.5 17.5t62.5 55.5z
M353 615q0 -36 -21 -57.5t-59 -21.5t-59.5 21.5t-21.5 57.5q0 35 22 56t59 21q38 0 59 -21t21 -56z" />
    <glyph glyph-name="Ccaron" unicode="&#x10c;" horiz-adv-x="685" 
d="M620 185l32 -28q-29 -42 -52 -67.5t-57.5 -51.5t-79 -38t-102.5 -12q-158 0 -237 90.5t-79 242.5q0 168 92 258t247 90q62 0 110 -16.5t54 -16.5q23 0 32 33h43v-246h-48q-41 192 -193 192q-180 0 -180 -268q0 -138 50.5 -200t157.5 -62q70 0 116.5 24t93.5 76zM214 837
h62l104 -68l102 68h63l-118 -139h-93z" />
    <glyph glyph-name="ccaron" unicode="&#x10d;" horiz-adv-x="495" 
d="M453 169l26 -16q-37 -80 -84.5 -122t-138.5 -42q-106 0 -165.5 61t-59.5 176q0 118 64.5 189t189.5 71q84 0 133.5 -31t49.5 -79q0 -31 -20.5 -48t-51.5 -17t-48 20t-21.5 43.5t-21 43.5t-46.5 20q-85 0 -85 -164q0 -92 29 -135t106 -43q49 0 81.5 17.5t62.5 55.5z
M120 674h58l94 -86l95 86h59l-107 -153h-93z" />
    <glyph glyph-name="Dcaron" unicode="&#x10e;" horiz-adv-x="766" 
d="M35 657h288q65 0 118.5 -7.5t107.5 -28.5t90.5 -55.5t59 -92t22.5 -133.5q0 -340 -394 -340h-292v43q61 0 77 16t16 78v392q0 53 -18.5 67.5t-74.5 14.5v46zM276 599v-541q16 -1 46 -1q60 0 101.5 11.5t74.5 41t49 84t16 135.5q0 271 -248 271q-22 0 -39 -1zM196 837h62
l104 -68l102 68h63l-118 -139h-93z" />
    <glyph glyph-name="dcaron" unicode="&#x10f;" horiz-adv-x="715" 
d="M575 12l-179 -17h-35v64h-4q-79 -69 -154 -69q-83 0 -127 65.5t-44 166.5q0 131 63 197t164 66q52 0 97 -22h3v114q0 33 -8 42.5t-36 9.5l-29 -1v43l160 35h56v-592q0 -37 11.5 -49t40.5 -12h21v-41zM359 109v242q-19 75 -90 75q-82 0 -82 -174q0 -179 80 -179q27 0 45 8
t47 28zM573 498l12 202h105v-35q-5 -72 -69 -174z" />
    <glyph glyph-name="Dcroat" unicode="&#x110;" horiz-adv-x="765" 
d="M43 305v65h89v159q0 53 -18.5 67.5t-74.5 14.5v46h288q65 0 118.5 -7.5t107.5 -28.5t90.5 -55.5t59 -92t22.5 -133.5q0 -340 -394 -340h-292v43q61 0 77 16t16 78v168h-89zM280 599v-229h152v-65h-152v-247q16 -1 46 -1q60 0 101.5 11.5t74.5 41t49 84t16 135.5
q0 271 -248 271q-22 0 -39 -1z" />
    <glyph glyph-name="dcroat" unicode="&#x111;" horiz-adv-x="592" 
d="M575 12l-179 -17h-35v64h-4q-79 -69 -154 -69q-83 0 -127 64.5t-44 164.5q0 130 63 195t164 65q56 0 100 -22v71h-147v53h147q-1 33 -9 43t-35 10l-29 -1v43l160 30h56v-125h66v-53h-66v-414q0 -37 11.5 -49t40.5 -12h21v-41zM359 108v238q-19 74 -90 74q-82 0 -82 -171
q0 -176 80 -176q27 0 45 7.5t47 27.5z" />
    <glyph glyph-name="Emacron" unicode="&#x112;" horiz-adv-x="660" 
d="M632 197l-24 -197h-573v43q54 0 73.5 15t19.5 68v397q0 57 -16 73.5t-77 16.5v44h562l6 -181h-51q-12 71 -38 94.5t-106 23.5h-132v-230h89q75 0 92 13.5t17 71.5h47v-231h-47q0 63 -17 77.5t-92 14.5h-89v-249h118q97 0 131.5 26t58.5 110h48zM509 726h-314v78h314v-78z
" />
    <glyph glyph-name="emacron" unicode="&#x113;" horiz-adv-x="515" 
d="M463 164l26 -18l-26.5 -47.5t-29.5 -40.5t-41.5 -37.5t-55 -21.5t-77.5 -10q-110 0 -168.5 63t-58.5 182q0 123 68 187t172 64q97 0 153.5 -58.5t57.5 -169.5h-304q0 -85 33.5 -122.5t99.5 -37.5q97 0 151 67zM178 304h148q0 137 -68 137q-41 0 -59 -31.5t-21 -105.5z
M410 555h-290v75h290v-75z" />
    <glyph glyph-name="Ebreve" unicode="&#x114;" horiz-adv-x="660" 
d="M632 197l-24 -197h-573v43q54 0 73.5 15t19.5 68v397q0 57 -16 73.5t-77 16.5v44h562l6 -181h-51q-12 71 -38 94.5t-106 23.5h-132v-230h89q75 0 92 13.5t17 71.5h47v-231h-47q0 63 -17 77.5t-92 14.5h-89v-249h118q97 0 131.5 26t58.5 110h48zM468 850h42
q-16 -150 -158 -150q-153 0 -159 150h42q8 -34 40.5 -52.5t75.5 -18.5q42 0 75 18.5t42 52.5z" />
    <glyph glyph-name="ebreve" unicode="&#x115;" horiz-adv-x="515" 
d="M463 164l26 -18l-26.5 -47.5t-29.5 -40.5t-41.5 -37.5t-55 -21.5t-77.5 -10q-110 0 -168.5 63t-58.5 182q0 123 68 187t172 64q97 0 153.5 -58.5t57.5 -169.5h-304q0 -85 33.5 -122.5t99.5 -37.5q97 0 151 67zM178 304h148q0 137 -68 137q-41 0 -59 -31.5t-21 -105.5z
M381 687h40q-16 -158 -156 -158q-71 0 -112.5 40t-44.5 118h40q10 -44 38.5 -59.5t78.5 -15.5q49 0 75.5 15.5t40.5 59.5z" />
    <glyph glyph-name="Edotaccent" unicode="&#x116;" horiz-adv-x="660" 
d="M632 197l-24 -197h-573v43q54 0 73.5 15t19.5 68v397q0 57 -16 73.5t-77 16.5v44h562l6 -181h-51q-12 71 -38 94.5t-106 23.5h-132v-230h89q75 0 92 13.5t17 71.5h47v-231h-47q0 63 -17 77.5t-92 14.5h-89v-249h118q97 0 131.5 26t58.5 110h48zM438 772q0 -35 -22.5 -56
t-62.5 -21q-42 0 -65 21t-23 56t23.5 55t64.5 20q40 0 62.5 -20t22.5 -55z" />
    <glyph glyph-name="edotaccent" unicode="&#x117;" horiz-adv-x="515" 
d="M463 164l26 -18l-26.5 -47.5t-29.5 -40.5t-41.5 -37.5t-55 -21.5t-77.5 -10q-110 0 -168.5 63t-58.5 182q0 123 68 187t172 64q97 0 153.5 -58.5t57.5 -169.5h-304q0 -85 33.5 -122.5t99.5 -37.5q97 0 151 67zM178 304h148q0 137 -68 137q-41 0 -59 -31.5t-21 -105.5z
M345 615q0 -36 -21 -57.5t-59 -21.5t-59.5 21.5t-21.5 57.5q0 35 22 56t59 21q38 0 59 -21t21 -56z" />
    <glyph glyph-name="Eogonek" unicode="&#x118;" horiz-adv-x="660" 
d="M598 -126l23 -28q-33 -33 -63.5 -50t-71.5 -17q-51 0 -82.5 24.5t-31.5 62.5q0 13 3 26t6.5 22t12 19.5l13 16t17 14.5l16 11.5t17.5 11t15 9.5v4h-437v43q54 0 73.5 15t19.5 68v397q0 57 -16 73.5t-77 16.5v44h562l6 -181h-51q-12 71 -38 94.5t-106 23.5h-132v-230h89
q75 0 92 13.5t17 71.5h47v-231h-47q0 63 -17 77.5t-92 14.5h-89v-249h118q97 0 131.5 26t58.5 110h48l-24 -197h-68q-1 0 -10.5 -7t-10.5 -7.5t-9.5 -7t-10 -8.5t-8 -8t-8.5 -10t-6 -10.5t-5 -12.5t-2.5 -13.5t-1.5 -15.5q0 -55 50 -55q27 0 41.5 5.5t38.5 23.5z" />
    <glyph glyph-name="eogonek" unicode="&#x119;" horiz-adv-x="515" 
d="M406 -126l23 -28q-33 -33 -63.5 -50t-71.5 -17q-51 0 -82.5 24.5t-31.5 62.5q0 31 14.5 56.5t29 38t38.5 28.5v3q-110 0 -170 62t-60 180q0 123 68 187t172 64q97 0 153.5 -58.5t57.5 -169.5h-304q0 -85 33.5 -122.5t99.5 -37.5q97 0 151 67l26 -18l-20 -36t-20 -31
t-26.5 -32.5t-30 -23.5t-40.5 -20l-13.5 -9t-14 -9.5t-12 -9.5t-12 -11.5l-9.5 -12.5t-8.5 -15t-4.5 -16.5t-2 -19.5q0 -55 50 -55q27 0 41.5 5.5t38.5 23.5zM178 304h148q0 137 -68 137q-41 0 -59 -31.5t-21 -105.5z" />
    <glyph glyph-name="Ecaron" unicode="&#x11a;" horiz-adv-x="660" 
d="M632 197l-24 -197h-573v43q54 0 73.5 15t19.5 68v397q0 57 -16 73.5t-77 16.5v44h562l6 -181h-51q-12 71 -38 94.5t-106 23.5h-132v-230h89q75 0 92 13.5t17 71.5h47v-231h-47q0 63 -17 77.5t-92 14.5h-89v-249h118q97 0 131.5 26t58.5 110h48zM186 837h62l104 -68
l102 68h63l-118 -139h-93z" />
    <glyph glyph-name="ecaron" unicode="&#x11b;" horiz-adv-x="515" 
d="M463 164l26 -18l-26.5 -47.5t-29.5 -40.5t-41.5 -37.5t-55 -21.5t-77.5 -10q-110 0 -168.5 63t-58.5 182q0 123 68 187t172 64q97 0 153.5 -58.5t57.5 -169.5h-304q0 -85 33.5 -122.5t99.5 -37.5q97 0 151 67zM178 304h148q0 137 -68 137q-41 0 -59 -31.5t-21 -105.5z
M112 674h58l94 -86l95 86h59l-107 -153h-93z" />
    <glyph glyph-name="Gcircumflex" unicode="&#x11c;" horiz-adv-x="739" 
d="M705 310v-44q-42 0 -54 -14.5t-12 -62.5v-132q-118 -68 -260 -68q-168 0 -251 87t-83 251q0 169 92.5 255.5t243.5 86.5q46 0 82 -9.5t56 -18.5t29 -9q23 0 33 37h44v-241h-49q-19 97 -67.5 142t-128.5 45q-178 0 -178 -270q0 -151 41.5 -223.5t135.5 -72.5
q44 0 72.5 9.5t57.5 33.5v87q0 55 -15.5 71t-71.5 16v44h283zM545 698h-62l-104 68l-102 -68h-63l118 139h93z" />
    <glyph glyph-name="gcircumflex" unicode="&#x11d;" horiz-adv-x="530" 
d="M113 182v6q-22 13 -34.5 23t-26 38.5t-13.5 68.5q0 81 61 122.5t147 41.5q30 0 63.5 -4t51.5 -8l19 -4h141v-62h-93v-4q27 -43 27 -96q0 -81 -59 -118t-146 -37q-55 0 -97 17q-17 -27 -17 -51q0 -13 7.5 -19t35.5 -10t88 -4q131 -2 185.5 -29t54.5 -101q0 -53 -30 -93
t-78.5 -61t-99.5 -31t-102 -10q-98 0 -138.5 28t-40.5 79q0 27 17 49t58 54v3q-67 18 -67 82q0 13 2 24.5t7.5 22.5l9 18t14.5 18t15 14.5l19 16.5t19 16zM244 432q-72 0 -72 -110q0 -125 78 -125q70 0 70 115q0 120 -76 120zM135 -40q-18 -34 -18 -68q0 -69 148 -69
q138 0 138 73q0 21 -10 34t-33.5 19t-43 7.5t-56.5 1.5q-34 0 -62.5 0.5t-42.5 1t-20 0.5zM410 521h-58l-94 91l-95 -91h-59l107 163h93z" />
    <glyph glyph-name="Gbreve" unicode="&#x11e;" horiz-adv-x="739" 
d="M705 310v-44q-42 0 -54 -14.5t-12 -62.5v-132q-118 -68 -260 -68q-168 0 -251 87t-83 251q0 169 92.5 255.5t243.5 86.5q46 0 82 -9.5t56 -18.5t29 -9q23 0 33 37h44v-241h-49q-19 97 -67.5 142t-128.5 45q-178 0 -178 -270q0 -151 41.5 -223.5t135.5 -72.5
q44 0 72.5 9.5t57.5 33.5v87q0 55 -15.5 71t-71.5 16v44h283zM495 850h42q-16 -150 -158 -150q-153 0 -159 150h42q8 -34 40.5 -52.5t75.5 -18.5q42 0 75 18.5t42 52.5z" />
    <glyph glyph-name="gbreve" unicode="&#x11f;" horiz-adv-x="530" 
d="M113 182v6q-22 13 -34.5 23t-26 38.5t-13.5 68.5q0 81 61 122.5t147 41.5q30 0 63.5 -4t51.5 -8l19 -4h141v-62h-93v-4q27 -43 27 -96q0 -81 -59 -118t-146 -37q-55 0 -97 17q-17 -27 -17 -51q0 -13 7.5 -19t35.5 -10t88 -4q131 -2 185.5 -29t54.5 -101q0 -53 -30 -93
t-78.5 -61t-99.5 -31t-102 -10q-98 0 -138.5 28t-40.5 79q0 27 17 49t58 54v3q-67 18 -67 82q0 13 2 24.5t7.5 22.5l9 18t14.5 18t15 14.5l19 16.5t19 16zM244 432q-72 0 -72 -110q0 -125 78 -125q70 0 70 115q0 120 -76 120zM135 -40q-18 -34 -18 -68q0 -69 148 -69
q138 0 138 73q0 21 -10 34t-33.5 19t-43 7.5t-56.5 1.5q-34 0 -62.5 0.5t-42.5 1t-20 0.5zM373 687h40q-16 -158 -156 -158q-71 0 -112.5 40t-44.5 118h40q10 -44 38.5 -59.5t78.5 -15.5q49 0 75.5 15.5t40.5 59.5z" />
    <glyph glyph-name="Gdotaccent" unicode="&#x120;" horiz-adv-x="739" 
d="M705 310v-44q-42 0 -54 -14.5t-12 -62.5v-132q-118 -68 -260 -68q-168 0 -251 87t-83 251q0 169 92.5 255.5t243.5 86.5q46 0 82 -9.5t56 -18.5t29 -9q23 0 33 37h44v-241h-49q-19 97 -67.5 142t-128.5 45q-178 0 -178 -270q0 -151 41.5 -223.5t135.5 -72.5
q44 0 72.5 9.5t57.5 33.5v87q0 55 -15.5 71t-71.5 16v44h283zM464 772q0 -35 -22.5 -56t-62.5 -21q-42 0 -65 21t-23 56t23.5 55t64.5 20q40 0 62.5 -20t22.5 -55z" />
    <glyph glyph-name="gdotaccent" unicode="&#x121;" horiz-adv-x="530" 
d="M113 182v6q-22 13 -34.5 23t-26 38.5t-13.5 68.5q0 81 61 122.5t147 41.5q30 0 63.5 -4t51.5 -8l19 -4h141v-62h-93v-4q27 -43 27 -96q0 -81 -59 -118t-146 -37q-55 0 -97 17q-17 -27 -17 -51q0 -13 7.5 -19t35.5 -10t88 -4q131 -2 185.5 -29t54.5 -101q0 -53 -30 -93
t-78.5 -61t-99.5 -31t-102 -10q-98 0 -138.5 28t-40.5 79q0 27 17 49t58 54v3q-67 18 -67 82q0 13 2 24.5t7.5 22.5l9 18t14.5 18t15 14.5l19 16.5t19 16zM244 432q-72 0 -72 -110q0 -125 78 -125q70 0 70 115q0 120 -76 120zM135 -40q-18 -34 -18 -68q0 -69 148 -69
q138 0 138 73q0 21 -10 34t-33.5 19t-43 7.5t-56.5 1.5q-34 0 -62.5 0.5t-42.5 1t-20 0.5zM337 615q0 -36 -21 -57.5t-59 -21.5t-59.5 21.5t-21.5 57.5q0 35 22 56t59 21q38 0 59 -21t21 -56z" />
    <glyph glyph-name="Gcommaaccent" unicode="&#x122;" horiz-adv-x="739" 
d="M705 310v-44q-42 0 -54 -14.5t-12 -62.5v-132q-118 -68 -260 -68q-168 0 -251 87t-83 251q0 169 92.5 255.5t243.5 86.5q46 0 82 -9.5t56 -18.5t29 -9q23 0 33 37h44v-241h-49q-19 97 -67.5 142t-128.5 45q-178 0 -178 -270q0 -151 41.5 -223.5t135.5 -72.5
q44 0 72.5 9.5t57.5 33.5v87q0 55 -15.5 71t-71.5 16v44h283zM320 -302l-15 32q83 33 83 108q-18 -7 -35 -7q-27 0 -43.5 16.5t-16.5 44.5q0 31 19 50.5t55 19.5q42 0 65 -27.5t23 -75.5q0 -114 -135 -161z" />
    <glyph glyph-name="gcommaaccent" unicode="&#x123;" horiz-adv-x="530" 
d="M113 182v6q-22 13 -34.5 23t-26 38.5t-13.5 68.5q0 81 61 122.5t147 41.5q30 0 63.5 -4t51.5 -8l19 -4h141v-62h-93v-4q27 -43 27 -96q0 -81 -59 -118t-146 -37q-55 0 -97 17q-17 -27 -17 -51q0 -13 7.5 -19t35.5 -10t88 -4q131 -2 185.5 -29t54.5 -101q0 -53 -30 -93
t-78.5 -61t-99.5 -31t-102 -10q-98 0 -138.5 28t-40.5 79q0 27 17 49t58 54v3q-67 18 -67 82q0 13 2 24.5t7.5 22.5l9 18t14.5 18t15 14.5l19 16.5t19 16zM244 432q-72 0 -72 -110q0 -125 78 -125q70 0 70 115q0 120 -76 120zM135 -40q-18 -34 -18 -68q0 -69 148 -69
q138 0 138 73q0 21 -10 34t-33.5 19t-43 7.5t-56.5 1.5q-34 0 -62.5 0.5t-42.5 1t-20 0.5zM305 786l15 -32q-83 -33 -83 -108q18 7 35 7q27 0 43.5 -16.5t16.5 -44.5q0 -31 -19 -50.5t-55 -19.5q-42 0 -65 27.5t-23 75.5q0 114 135 161z" />
    <glyph glyph-name="Hcircumflex" unicode="&#x124;" horiz-adv-x="844" 
d="M277 511v-151h290v151q0 63 -16 83t-78 20v43h338v-43q-65 0 -80 -19.5t-15 -83.5v-367q0 -66 15.5 -83.5t79.5 -17.5v-43h-338v43q64 0 79 17t15 84v161h-290v-161q0 -67 14.5 -84t75.5 -17v-43h-332v43q63 0 78 17t15 84v367q0 63 -15 83t-78 20v43h336v-43
q-64 0 -79 -19.5t-15 -83.5zM589 698h-62l-104 68l-102 -68h-63l118 139h93z" />
    <glyph glyph-name="hcircumflex" unicode="&#x125;" horiz-adv-x="640" 
d="M235 346v-238q0 -40 12 -54t60 -14v-40h-285v40q42 0 56 12t14 52v493q0 24 -12 32t-36 8l-29 -3v41l158 31h62v-305h4q44 45 77.5 64.5t77.5 19.5q78 0 118.5 -48.5t40.5 -141.5v-183q0 -42 13.5 -57t56.5 -15v-40h-278v40q44 0 54.5 14t10.5 55v138q0 28 -1 44.5
t-5 37.5t-12 32.5t-23 19.5t-36 8q-46 0 -98 -43zM469 734h-62l-104 68l-102 -68h-63l118 139h93z" />
    <glyph glyph-name="Hbar" unicode="&#x126;" horiz-adv-x="854" 
d="M40 464v56h93q-1 50 -12 69.5t-53 23.5q-2 0 -7 0.5t-8 0.5h-13v43h336v-43h-13q-3 0 -8 -0.5t-7 -0.5q-3 -1 -9 -1h-1q-2 -1 -3 -1q-4 0 -6 -1q-3 0 -9 -2q-11 -4 -12 -5q-2 -2 -3 -2q-2 -2 -6 -4q0 -1 -0.5 -1t-0.5 -1l-2 -2q-14 -16 -14 -73h290v15q0 6 -2 14v9
q-4 27 -18 39.5t-46 15.5q-2 0 -7 0.5t-8 0.5h-13v43h338v-43q-63 0 -79 -18.5t-16 -75.5h94v-56h-94v-320q0 -64 14 -82t68 -19h13v-43h-338v43h12q16 0 22 1q6 0 9 1q11 1 22 5l3 2l5 3q1 0 3 2q13 12 16 38q0 3 0.5 7t0.5 7q1 10 1 35v161h-290v-180q0 -16 2 -34v-3l1 -1
q0 -5 2 -11q1 -1 1 -3l3 -6l3 -5q5 -6 10 -9q3 -2 9 -4q1 -1 3 -1q1 -1 3 -1l16 -3h4q10 -1 33 -1v-43h-332v43q34 0 46 2l8 2q9 1 15 6q21 11 23 61q0 2 0.5 5.5t0.5 5.5v339h-93zM282 360h290v104h-290v-104z" />
    <glyph glyph-name="hbar" unicode="&#x127;" horiz-adv-x="637" 
d="M232 340v-232q0 -40 12 -54t60 -14v-40h-282v40q42 0 56 12t14 52v424h-76v53h76v19q0 25 -12 33.5t-36 8.5l-29 -3v41l158 26h59v-125h140v-53h-140v-133h4q43 45 78.5 64.5t79.5 19.5q156 0 156 -190v-177q0 -42 13.5 -57t56.5 -15v-40h-275v40q44 0 54.5 14t10.5 55
v132q0 28 -1 44.5t-5 37.5t-12 32.5t-23 19.5t-36 8q-49 0 -101 -43z" />
    <glyph glyph-name="Itilde" unicode="&#x128;" horiz-adv-x="405" 
d="M128 144v367q0 63 -15.5 83t-77.5 20v43h335v-43q-63 0 -78 -20t-15 -83v-367q0 -66 13.5 -83.5t75.5 -17.5v-43h-331v43q64 0 78.5 17t14.5 84zM337 816h38q-11 -58 -35.5 -84t-67.5 -26q-19 0 -68.5 14.5t-70.5 14.5q-40 0 -53 -34h-39q8 51 35 81.5t66 30.5
q19 0 70.5 -14.5t74.5 -14.5q37 0 50 32z" />
    <glyph glyph-name="itilde" unicode="&#x129;" horiz-adv-x="326" 
d="M276 657h38q-22 -121 -104 -121q-30 0 -68 19.5t-57 19.5q-38 0 -50 -42h-39q9 52 36 86t66 34q32 0 69 -19.5t56 -19.5q40 0 53 43zM311 40v-40h-293v40q48 0 62 13.5t14 56.5v255q0 31 -12.5 40t-38.5 9l-26 -2v42l150 28h67v-369q0 -45 14 -59t63 -14z" />
    <glyph glyph-name="Imacron" unicode="&#x12a;" horiz-adv-x="405" 
d="M128 144v367q0 63 -15.5 83t-77.5 20v43h335v-43q-63 0 -78 -20t-15 -83v-367q0 -66 13.5 -83.5t75.5 -17.5v-43h-331v43q64 0 78.5 17t14.5 84zM360 726h-314v78h314v-78z" />
    <glyph glyph-name="imacron" unicode="&#x12b;" horiz-adv-x="326" 
d="M311 40v-40h-293v40q48 0 62 13.5t14 56.5v255q0 31 -12.5 40t-38.5 9l-26 -2v42l150 28h67v-369q0 -45 14 -59t63 -14zM285 555h-270v75h270v-75z" />
    <glyph glyph-name="Ibreve" unicode="&#x12c;" horiz-adv-x="405" 
d="M128 144v367q0 63 -15.5 83t-77.5 20v43h335v-43q-63 0 -78 -20t-15 -83v-367q0 -66 13.5 -83.5t75.5 -17.5v-43h-331v43q64 0 78.5 17t14.5 84zM319 850h42q-16 -150 -158 -150q-153 0 -159 150h42q8 -34 40.5 -52.5t75.5 -18.5q42 0 75 18.5t42 52.5z" />
    <glyph glyph-name="ibreve" unicode="&#x12d;" horiz-adv-x="326" 
d="M311 40v-40h-293v40q48 0 62 13.5t14 56.5v255q0 31 -12.5 40t-38.5 9l-26 -2v42l150 28h67v-369q0 -45 14 -59t63 -14zM260 687h40q-16 -158 -150 -158q-68 0 -108 40t-43 118h40q9 -44 36 -59.5t75 -15.5q47 0 72 15.5t38 59.5z" />
    <glyph glyph-name="Iogonek" unicode="&#x12e;" horiz-adv-x="405" 
d="M317 -126l23 -28q-33 -33 -63.5 -50t-71.5 -17q-51 0 -82.5 24.5t-31.5 62.5q0 12 2 23t6.5 21l8 17.5t12 15.5t13 13t15 12l14.5 9.5l15.5 10t13.5 8.5v4h-156v43q64 0 78.5 17t14.5 84v367q0 63 -15.5 83t-77.5 20v43h335v-43q-63 0 -78 -20t-15 -83v-367
q0 -66 13.5 -83.5t75.5 -17.5v-43h-107q-1 0 -10.5 -7t-10.5 -7.5t-9.5 -7t-10 -8.5t-8 -8t-8.5 -10t-6 -10.5t-5 -12.5t-2.5 -13.5t-1.5 -15.5q0 -55 50 -55q27 0 41.5 5.5t38.5 23.5z" />
    <glyph glyph-name="iogonek" unicode="&#x12f;" horiz-adv-x="326" 
d="M283 -126l23 -28q-33 -33 -63.5 -50t-71.5 -17q-51 0 -82.5 24.5t-31.5 62.5q0 12 2 23.5t6.5 21l8 17.5t12 16t13 13t15 12.5t14 9.5t15.5 9.5t14 8.5v3h-139v40q48 0 62 13.5t14 56.5v255q0 31 -12.5 40t-38.5 9l-26 -2v42l150 28h67v-369q0 -45 14 -59t63 -14v-40h-86
q-1 0 -10.5 -7t-10.5 -7.5t-9.5 -7t-10 -8.5t-8 -8t-8.5 -10t-6 -10.5t-5 -12.5t-2.5 -13.5t-1.5 -15.5q0 -55 50 -55q27 0 41.5 5.5t38.5 23.5zM162 709q39 0 60 -21t21 -56q0 -37 -21 -58t-60 -21q-37 0 -58.5 21t-21.5 57t21 57t59 21z" />
    <glyph glyph-name="Idotaccent" unicode="&#x130;" horiz-adv-x="405" 
d="M128 144v367q0 63 -15.5 83t-77.5 20v43h335v-43q-63 0 -78 -20t-15 -83v-367q0 -66 13.5 -83.5t75.5 -17.5v-43h-331v43q64 0 78.5 17t14.5 84zM289 772q0 -35 -22.5 -56t-62.5 -21q-42 0 -65 21t-23 56t23.5 55t64.5 20q40 0 62.5 -20t22.5 -55z" />
    <glyph glyph-name="dotlessi" unicode="&#x131;" horiz-adv-x="326" 
d="M311 40v-40h-293v40q48 0 62 13.5t14 56.5v255q0 31 -12.5 40t-38.5 9l-26 -2v42l150 28h67v-369q0 -45 14 -59t63 -14z" />
    <glyph glyph-name="IJ" unicode="&#x132;" horiz-adv-x="875" 
d="M128 144v367q0 63 -15.5 83t-77.5 20v43h335v-43q-63 0 -78 -20t-15 -83v-367q0 -66 13.5 -83.5t75.5 -17.5v-43h-331v43q64 0 78.5 17t14.5 84zM618 132v379q0 63 -17.5 83t-85.5 20v43h347v-43q-64 0 -79.5 -20t-15.5 -83v-346q0 -45 -14 -78.5t-35 -52t-52 -29.5
t-59 -14.5t-62 -3.5q-59 0 -99.5 21.5t-40.5 70.5q0 29 16 46.5t44 17.5q26 0 42.5 -17t22 -37.5t16 -37.5t26.5 -17q28 0 37 19.5t9 78.5z" />
    <glyph glyph-name="ij" unicode="&#x133;" horiz-adv-x="641" 
d="M314 40v-40h-296v40q48 0 62 13.5t14 56.5v255q0 31 -12.5 40t-38.5 9l-26 -2v42l150 28h70v-369q0 -45 14 -59t63 -14zM162 709q39 0 60 -21t21 -56q0 -37 -21 -58t-60 -21q-37 0 -58.5 21t-21.5 57t21 57t59 21zM564 482v-484q0 -116 -59 -174.5t-153 -58.5
q-62 0 -99.5 22.5t-37.5 70.5q0 24 15.5 39.5t38.5 15.5t39.5 -14.5t23.5 -31.5t19 -31.5t27 -14.5q16 0 24.5 7.5t12.5 30t5 45t1 71.5v385q0 32 -10 43t-36 11l-31 -2v42l149 28h71zM492 713q39 0 60 -21t21 -56q0 -37 -21 -58t-60 -21q-37 0 -59 21.5t-22 56.5
q0 36 21.5 57t59.5 21z" />
    <glyph glyph-name="Jcircumflex" unicode="&#x134;" horiz-adv-x="470" 
d="M213 132v379q0 63 -17.5 83t-85.5 20v43h347v-43q-64 0 -79.5 -20t-15.5 -83v-346q0 -45 -14 -78.5t-35 -52t-52 -29.5t-59 -14.5t-62 -3.5q-59 0 -99.5 21.5t-40.5 70.5q0 29 16 46.5t44 17.5q26 0 42.5 -17t22 -37.5t16 -37.5t26.5 -17q28 0 37 19.5t9 78.5zM449 698
h-62l-104 68l-102 -68h-63l118 139h93z" />
    <glyph glyph-name="jcircumflex" unicode="&#x135;" horiz-adv-x="309" 
d="M232 482v-484q0 -116 -58 -174.5t-151 -58.5q-62 0 -99.5 22.5t-37.5 70.5q0 24 15 39.5t39 15.5q23 0 39.5 -14.5t23.5 -31.5t19 -31.5t27 -14.5q16 0 24.5 7.5t12.5 30t5 45t1 71.5v385q0 32 -10 43t-36 11l-31 -2v42l149 28h68zM301 521h-58l-94 91l-95 -91h-59
l107 163h93z" />
    <glyph glyph-name="Kcommaaccent" unicode="&#x136;" horiz-adv-x="786" 
d="M128 144v367q0 64 -15 83.5t-78 19.5v43h336v-43q-64 0 -79 -19.5t-15 -84.5v-172h5l171 158q34 32 45.5 48.5t11.5 36.5q0 32 -37 32h-17v44h271v-44q-42 -2 -67.5 -14.5t-67.5 -51.5l-187 -168l280 -292q24 -25 45 -34.5t55 -9.5v-43h-351v43h16q38 0 38 22
q0 18 -16.5 38.5t-75.5 81.5l-30 31l-81 87h-8v-160q0 -65 14.5 -82.5t75.5 -17.5v-43h-332v43q64 0 78.5 17t14.5 84zM350 -302l-15 32q83 33 83 108q-18 -7 -35 -7q-27 0 -43.5 16.5t-16.5 44.5q0 31 19 50.5t55 19.5q42 0 65 -27.5t23 -75.5q0 -114 -135 -161z" />
    <glyph glyph-name="kcommaaccent" unicode="&#x137;" horiz-adv-x="613" 
d="M615 0h-262v40q21 0 27.5 3.5t6.5 11.5q0 11 -11 23l-132 151h-9v-126q0 -39 14 -51t58 -12v-40h-289v40q47 0 60.5 13t13.5 56v488q0 40 -44 40l-36 -2v40l156 31h67v-440h8l106 116q14 16 14 29q0 12 -10 17t-40 5v40h260v-40q-39 0 -77.5 -21t-118.5 -86l-39 -32
l202 -215q24 -26 38 -32.5t37 -6.5v-40zM263 -302l-15 32q83 33 83 108q-18 -7 -35 -7q-27 0 -43.5 16.5t-16.5 44.5q0 31 19 50.5t55 19.5q42 0 65 -27.5t23 -75.5q0 -114 -135 -161z" />
    <glyph glyph-name="kgreenlandic" unicode="&#x138;" horiz-adv-x="615" 
d="M617 0h-262v40q21 0 27.5 3.5t6.5 11.5q0 11 -11 23l-132 151h-9v-126q0 -39 14 -51t58 -12v-40h-289v40q47 0 60.5 13t13.5 56v264q0 40 -44 40l-36 -2v40l156 31h67v-216h8l106 116q14 16 14 29q0 12 -10 17t-40 5v40h260v-40q-39 0 -77.5 -21t-118.5 -86l-39 -32
l202 -215q24 -26 38 -32.5t37 -6.5v-40z" />
    <glyph glyph-name="Lacute" unicode="&#x139;" horiz-adv-x="648" 
d="M631 211l-28 -211h-569v43q62 0 78 16.5t16 76.5v381q0 60 -16 78.5t-77 18.5v43h340v-43q-63 0 -80.5 -19t-17.5 -79v-396q0 -37 15 -48t60 -11h61q82 0 113 29.5t54 120.5h51zM142 698l101 133h121v-32l-157 -101h-65z" />
    <glyph glyph-name="lacute" unicode="&#x13a;" horiz-adv-x="327" 
d="M315 40v-40h-296v40q47 0 60 14t13 58v483q0 26 -13 34t-36 8l-31 -2v40l157 31h66v-594q0 -45 14 -58.5t66 -13.5zM60 734l101 133h121v-32l-157 -101h-65z" />
    <glyph glyph-name="Lcommaaccent" unicode="&#x13b;" horiz-adv-x="648" 
d="M631 211l-28 -211h-569v43q62 0 78 16.5t16 76.5v381q0 60 -16 78.5t-77 18.5v43h340v-43q-63 0 -80.5 -19t-17.5 -79v-396q0 -37 15 -48t60 -11h61q82 0 113 29.5t54 120.5h51zM271 -302l-15 32q83 33 83 108q-18 -7 -35 -7q-27 0 -43.5 16.5t-16.5 44.5q0 31 19 50.5
t55 19.5q42 0 65 -27.5t23 -75.5q0 -114 -135 -161z" />
    <glyph glyph-name="lcommaaccent" unicode="&#x13c;" horiz-adv-x="327" 
d="M315 40v-40h-296v40q47 0 60 14t13 58v483q0 26 -13 34t-36 8l-31 -2v40l157 31h66v-594q0 -45 14 -58.5t66 -13.5zM117 -302l-15 32q83 33 83 108q-18 -7 -35 -7q-27 0 -43.5 16.5t-16.5 44.5q0 31 19 50.5t55 19.5q42 0 65 -27.5t23 -75.5q0 -114 -135 -161z" />
    <glyph glyph-name="Lcaron" unicode="&#x13d;" horiz-adv-x="648" 
d="M631 211l-28 -211h-569v43q62 0 78 16.5t16 76.5v381q0 60 -16 78.5t-77 18.5v43h340v-43q-63 0 -80.5 -19t-17.5 -79v-396q0 -37 15 -48t60 -11h61q82 0 113 29.5t54 120.5h51zM440 455l12 202h105v-35q-5 -72 -69 -174z" />
    <glyph glyph-name="lcaron" unicode="&#x13e;" horiz-adv-x="450" 
d="M315 40v-40h-296v40q47 0 60 14t13 58v483q0 26 -13 34t-36 8l-31 -2v40l157 31h66v-594q0 -45 14 -58.5t66 -13.5zM308 498l12 202h105v-35q-5 -72 -69 -174z" />
    <glyph glyph-name="Ldot" unicode="&#x13f;" horiz-adv-x="648" 
d="M631 211l-28 -211h-569v43q62 0 78 16.5t16 76.5v381q0 60 -16 78.5t-77 18.5v43h340v-43q-63 0 -80.5 -19t-17.5 -79v-396q0 -37 15 -48t60 -11h61q82 0 113 29.5t54 120.5h51zM610 347q0 -35 -22.5 -56t-62.5 -21q-42 0 -65 21t-23 56t23.5 55t64.5 20q40 0 62.5 -20
t22.5 -55z" />
    <glyph glyph-name="ldot" unicode="&#x140;" horiz-adv-x="484" 
d="M315 40v-40h-296v40q47 0 60 14t13 58v483q0 26 -13 34t-36 8l-31 -2v40l157 31h66v-594q0 -45 14 -58.5t66 -13.5zM486 364q0 -36 -21 -57.5t-59 -21.5t-59.5 21.5t-21.5 57.5q0 35 22 56t59 21q38 0 59 -21t21 -56z" />
    <glyph glyph-name="Lslash" unicode="&#x141;" horiz-adv-x="653" 
d="M636 211l-28 -211h-569v43q62 0 78 16.5t16 76.5v92l-75 -45l-28 49l103 63v222q0 60 -16 78.5t-77 18.5v43h340v-43q-63 0 -80.5 -19t-17.5 -79v-133l164 98l31 -46l-195 -118v-197q0 -37 15 -48t60 -11h61q82 0 113 29.5t54 120.5h51z" />
    <glyph glyph-name="lslash" unicode="&#x142;" horiz-adv-x="342" 
d="M48 233l-28 42l82 58v262q0 26 -13 34t-36 8l-31 -2v40l157 31h66v-271l59 43l29 -41l-88 -66v-259q0 -45 14 -58.5t66 -13.5v-40h-296v40q47 0 60 14t13 58v158z" />
    <glyph glyph-name="Nacute" unicode="&#x143;" horiz-adv-x="795" 
d="M777 657v-43q-31 0 -50 -8.5t-27.5 -28t-10.5 -38.5t-2 -54v-492h-115l-383 516h-5v-347q0 -75 17 -97t74 -22v-43h-251v43q60 0 77 22t17 97v403q-24 30 -42 39.5t-52 9.5v43h240l351 -471h5v299q0 29 -1 44t-6 34t-14.5 28.5t-28 16t-45.5 6.5v43h252zM312 698l101 133
h121v-32l-157 -101h-65z" />
    <glyph glyph-name="nacute" unicode="&#x144;" horiz-adv-x="646" 
d="M559 290v-178q0 -42 13.5 -57t55.5 -15v-40h-278v40q43 0 54.5 14t11.5 58v156q0 68 -19.5 94.5t-61.5 26.5q-45 0 -97 -43v-234q0 -44 12 -58t59 -14v-40h-284v40q47 0 58 13.5t11 58.5v257q0 27 -9.5 36t-31.5 9l-27 -2v41l154 29h55v-82h4q44 43 78.5 64t75.5 21
q80 0 123 -49t43 -146zM249 521l69 163h113v-32l-133 -131h-49z" />
    <glyph glyph-name="Ncommaaccent" unicode="&#x145;" horiz-adv-x="795" 
d="M777 657v-43q-31 0 -50 -8.5t-27.5 -28t-10.5 -38.5t-2 -54v-492h-115l-383 516h-5v-347q0 -75 17 -97t74 -22v-43h-251v43q60 0 77 22t17 97v403q-24 30 -42 39.5t-52 9.5v43h240l351 -471h5v299q0 29 -1 44t-6 34t-14.5 28.5t-28 16t-45.5 6.5v43h252zM339 -302l-15 32
q83 33 83 108q-18 -7 -35 -7q-27 0 -43.5 16.5t-16.5 44.5q0 31 19 50.5t55 19.5q42 0 65 -27.5t23 -75.5q0 -114 -135 -161z" />
    <glyph glyph-name="ncommaaccent" unicode="&#x146;" horiz-adv-x="646" 
d="M559 290v-178q0 -42 13.5 -57t55.5 -15v-40h-278v40q43 0 54.5 14t11.5 58v156q0 68 -19.5 94.5t-61.5 26.5q-45 0 -97 -43v-234q0 -44 12 -58t59 -14v-40h-284v40q47 0 58 13.5t11 58.5v257q0 27 -9.5 36t-31.5 9l-27 -2v41l154 29h55v-82h4q44 43 78.5 64t75.5 21
q80 0 123 -49t43 -146zM280 -302l-15 32q83 33 83 108q-18 -7 -35 -7q-27 0 -43.5 16.5t-16.5 44.5q0 31 19 50.5t55 19.5q42 0 65 -27.5t23 -75.5q0 -114 -135 -161z" />
    <glyph glyph-name="Ncaron" unicode="&#x147;" horiz-adv-x="795" 
d="M777 657v-43q-31 0 -50 -8.5t-27.5 -28t-10.5 -38.5t-2 -54v-492h-115l-383 516h-5v-347q0 -75 17 -97t74 -22v-43h-251v43q60 0 77 22t17 97v403q-24 30 -42 39.5t-52 9.5v43h240l351 -471h5v299q0 29 -1 44t-6 34t-14.5 28.5t-28 16t-45.5 6.5v43h252zM251 837h62
l104 -68l102 68h63l-118 -139h-93z" />
    <glyph glyph-name="ncaron" unicode="&#x148;" horiz-adv-x="646" 
d="M559 290v-178q0 -42 13.5 -57t55.5 -15v-40h-278v40q43 0 54.5 14t11.5 58v156q0 68 -19.5 94.5t-61.5 26.5q-45 0 -97 -43v-234q0 -44 12 -58t59 -14v-40h-284v40q47 0 58 13.5t11 58.5v257q0 27 -9.5 36t-31.5 9l-27 -2v41l154 29h55v-82h4q44 43 78.5 64t75.5 21
q80 0 123 -49t43 -146zM155 674h58l94 -86l95 86h59l-107 -153h-93z" />
    <glyph glyph-name="napostrophe" unicode="&#x149;" horiz-adv-x="646" 
d="M559 290v-178q0 -42 13.5 -57t55.5 -15v-40h-278v40q43 0 54.5 14t11.5 58v156q0 68 -19.5 94.5t-61.5 26.5q-45 0 -97 -43v-234q0 -44 12 -58t59 -14v-40h-284v40q47 0 58 13.5t11 58.5v257q0 27 -9.5 36t-31.5 9l-27 -2v41l154 29h55v-82h4q44 43 78.5 64t75.5 21
q80 0 123 -49t43 -146zM-137 454l-14 29q37 17 55.5 40.5t18.5 71.5q-31 -9 -53.5 6t-22.5 49q0 27 20 48t54 21q82 0 82 -90q0 -42 -14.5 -74.5t-40 -52.5t-43 -29.5t-42.5 -18.5z" />
    <glyph glyph-name="Eng" unicode="&#x14a;" horiz-adv-x="798" 
d="M777 657v-43q-43 0 -64 -20q-26 -21 -26 -109v-488q0 -122 -49 -178.5t-150 -56.5q-57 0 -93 22.5t-36 62.5q0 24 15.5 41t41.5 17q21 0 36.5 -13t23.5 -29t21.5 -29t30.5 -13q41 0 58.5 32.5t17.5 109.5v30h-32l-383 516h-5v-347q0 -75 17 -97t74 -22v-43h-251v43
q60 0 77 22t17 97v403q-24 30 -42 39.5t-52 9.5v43h240l351 -471h5v299q0 49 -4 69.5t-15 34.5q-21 25 -76 25v43h252z" />
    <glyph glyph-name="eng" unicode="&#x14b;" horiz-adv-x="636" 
d="M559 290v-300q0 -111 -60 -168t-152 -57q-62 0 -99.5 22.5t-37.5 70.5q0 24 15 39.5t39 15.5q23 0 39.5 -14.5t23.5 -31.5t19 -31.5t27 -14.5q28 0 35.5 29t7.5 109v309q0 67 -19 94t-59 27q-54 0 -100 -44v-233q0 -44 12 -58t59 -14v-40h-284v40q47 0 58 13.5t11 58.5
v257q0 27 -9.5 36t-31.5 9l-27 -2v41l154 29h55v-82h4q44 44 79.5 64.5t82.5 20.5q75 0 116.5 -49t41.5 -146z" />
    <glyph glyph-name="Omacron" unicode="&#x14c;" horiz-adv-x="748" 
d="M703 338q0 -165 -86 -258.5t-243 -93.5q-158 0 -243.5 89.5t-85.5 253.5q0 158 87.5 249t241.5 91q156 0 242.5 -87.5t86.5 -243.5zM547 335q0 137 -47 210.5t-129 73.5q-80 0 -125 -74t-45 -210q0 -144 43.5 -220.5t130.5 -76.5q88 0 130 72t42 225zM530 726h-314v78
h314v-78z" />
    <glyph glyph-name="omacron" unicode="&#x14d;" horiz-adv-x="548" 
d="M277 485q118 0 178.5 -62t60.5 -172q0 -128 -62 -194.5t-180 -66.5q-242 0 -242 250q0 110 62 177.5t183 67.5zM269 437q-85 0 -85 -187q0 -108 22.5 -159.5t70.5 -51.5t67.5 48.5t19.5 155.5q0 194 -95 194zM424 555h-290v75h290v-75z" />
    <glyph glyph-name="Obreve" unicode="&#x14e;" horiz-adv-x="748" 
d="M703 338q0 -165 -86 -258.5t-243 -93.5q-158 0 -243.5 89.5t-85.5 253.5q0 158 87.5 249t241.5 91q156 0 242.5 -87.5t86.5 -243.5zM547 335q0 137 -47 210.5t-129 73.5q-80 0 -125 -74t-45 -210q0 -144 43.5 -220.5t130.5 -76.5q88 0 130 72t42 225zM489 850h42
q-16 -150 -158 -150q-153 0 -159 150h42q8 -34 40.5 -52.5t75.5 -18.5q42 0 75 18.5t42 52.5z" />
    <glyph glyph-name="obreve" unicode="&#x14f;" horiz-adv-x="548" 
d="M277 485q118 0 178.5 -62t60.5 -172q0 -128 -62 -194.5t-180 -66.5q-242 0 -242 250q0 110 62 177.5t183 67.5zM269 437q-85 0 -85 -187q0 -108 22.5 -159.5t70.5 -51.5t67.5 48.5t19.5 155.5q0 194 -95 194zM394 687h40q-16 -158 -156 -158q-71 0 -112.5 40t-44.5 118
h40q10 -44 38.5 -59.5t78.5 -15.5q49 0 75.5 15.5t40.5 59.5z" />
    <glyph glyph-name="Ohungarumlaut" unicode="&#x150;" horiz-adv-x="748" 
d="M703 338q0 -165 -86 -258.5t-243 -93.5q-158 0 -243.5 89.5t-85.5 253.5q0 158 87.5 249t241.5 91q156 0 242.5 -87.5t86.5 -243.5zM547 335q0 137 -47 210.5t-129 73.5q-80 0 -125 -74t-45 -210q0 -144 43.5 -220.5t130.5 -76.5q88 0 130 72t42 225zM229 698l82 133h121
v-32l-138 -101h-65zM409 698l82 133h121v-32l-138 -101h-65z" />
    <glyph glyph-name="ohungarumlaut" unicode="&#x151;" horiz-adv-x="548" 
d="M277 485q118 0 178.5 -62t60.5 -172q0 -128 -62 -194.5t-180 -66.5q-242 0 -242 250q0 110 62 177.5t183 67.5zM269 437q-85 0 -85 -187q0 -108 22.5 -159.5t70.5 -51.5t67.5 48.5t19.5 155.5q0 194 -95 194zM143 521l61 163h113v-32l-125 -131h-49zM316 521l61 163h113
v-32l-125 -131h-49z" />
    <glyph glyph-name="OE" unicode="&#x152;" horiz-adv-x="1007" 
d="M979 197l-24 -197h-472q-68 -14 -109 -14q-158 0 -243.5 89.5t-85.5 253.5q0 158 87.5 249t241.5 91q60 0 105 -12h465l6 -181h-51q-12 71 -38 94.5t-106 23.5h-132v-230h89q75 0 92 13.5t17 71.5h47v-231h-47q0 63 -17 77.5t-92 14.5h-89v-249h118q97 0 131.5 26
t58.5 110h48zM375 38q53 0 76.5 18t23.5 70v397q0 96 -104 96q-80 0 -125 -74t-45 -210q0 -144 43.5 -220.5t130.5 -76.5z" />
    <glyph glyph-name="oe" unicode="&#x153;" horiz-adv-x="848" 
d="M796 164l26 -18l-26.5 -47.5t-29.5 -40.5t-41.5 -37.5t-55 -21.5t-77.5 -10q-102 0 -152 70h-4q-56 -69 -165 -69q-120 0 -179.5 60.5t-59.5 189.5q0 111 60.5 178t181.5 67q113 0 168 -68h5q62 68 158 68q97 0 153.5 -58.5t57.5 -169.5h-304q0 -85 33.5 -122.5
t99.5 -37.5q97 0 151 67zM273 437q-46 0 -65 -47.5t-19 -139.5q0 -109 22 -160t71 -51t68 48.5t19 155.5q0 194 -96 194zM511 304h148q0 137 -68 137q-41 0 -59 -31.5t-21 -105.5z" />
    <glyph glyph-name="Racute" unicode="&#x154;" horiz-adv-x="729" 
d="M623 489q0 -135 -158 -171v-5q10 -6 18.5 -15t24 -29.5l27.5 -37l43 -60l55 -77.5q22 -31 45 -41t61 -10v-43h-227l-149 255q-13 22 -26 28.5t-40 6.5h-20v-155q0 -61 17 -76.5t82 -15.5v-43h-341v43q58 0 75.5 16.5t17.5 76.5v400q0 46 -17.5 62t-75.5 16v43h326
q55 0 100 -8.5t82.5 -27.5t58.5 -52.5t21 -79.5zM277 605v-266l38 -1q80 4 116.5 35t36.5 109q0 126 -131 126q-41 0 -60 -3zM245 698l101 133h121v-32l-157 -101h-65z" />
    <glyph glyph-name="racute" unicode="&#x155;" horiz-adv-x="449" 
d="M235 482v-104h4l27 37t24.5 33t20.5 20.5t27.5 16t31.5 3.5q77 0 77 -82q0 -40 -18 -60.5t-43 -20.5q-26 0 -52 21t-31 21q-26 0 -66 -45v-206q0 -47 20.5 -61.5t76.5 -14.5v-40h-314v40q48 0 61 13t13 56v245q0 29 -8.5 42.5t-33.5 13.5l-31 -2v43l157 31h57zM170 521
l69 163h113v-32l-133 -131h-49z" />
    <glyph glyph-name="Rcommaaccent" unicode="&#x156;" horiz-adv-x="729" 
d="M623 489q0 -135 -158 -171v-5q10 -6 18.5 -15t24 -29.5l27.5 -37l43 -60l55 -77.5q22 -31 45 -41t61 -10v-43h-227l-149 255q-13 22 -26 28.5t-40 6.5h-20v-155q0 -61 17 -76.5t82 -15.5v-43h-341v43q58 0 75.5 16.5t17.5 76.5v400q0 46 -17.5 62t-75.5 16v43h326
q55 0 100 -8.5t82.5 -27.5t58.5 -52.5t21 -79.5zM277 605v-266l38 -1q80 4 116.5 35t36.5 109q0 126 -131 126q-41 0 -60 -3zM317 -302l-15 32q83 33 83 108q-18 -7 -35 -7q-27 0 -43.5 16.5t-16.5 44.5q0 31 19 50.5t55 19.5q42 0 65 -27.5t23 -75.5q0 -114 -135 -161z" />
    <glyph glyph-name="rcommaaccent" unicode="&#x157;" horiz-adv-x="449" 
d="M235 482v-104h4l27 37t24.5 33t20.5 20.5t27.5 16t31.5 3.5q77 0 77 -82q0 -40 -18 -60.5t-43 -20.5q-26 0 -52 21t-31 21q-26 0 -66 -45v-206q0 -47 20.5 -61.5t76.5 -14.5v-40h-314v40q48 0 61 13t13 56v245q0 29 -8.5 42.5t-33.5 13.5l-31 -2v43l157 31h57zM134 -302
l-15 32q83 33 83 108q-18 -7 -35 -7q-27 0 -43.5 16.5t-16.5 44.5q0 31 19 50.5t55 19.5q42 0 65 -27.5t23 -75.5q0 -114 -135 -161z" />
    <glyph glyph-name="Rcaron" unicode="&#x158;" horiz-adv-x="729" 
d="M623 489q0 -135 -158 -171v-5q10 -6 18.5 -15t24 -29.5l27.5 -37l43 -60l55 -77.5q22 -31 45 -41t61 -10v-43h-227l-149 255q-13 22 -26 28.5t-40 6.5h-20v-155q0 -61 17 -76.5t82 -15.5v-43h-341v43q58 0 75.5 16.5t17.5 76.5v400q0 46 -17.5 62t-75.5 16v43h326
q55 0 100 -8.5t82.5 -27.5t58.5 -52.5t21 -79.5zM277 605v-266l38 -1q80 4 116.5 35t36.5 109q0 126 -131 126q-41 0 -60 -3zM184 837h62l104 -68l102 68h63l-118 -139h-93z" />
    <glyph glyph-name="rcaron" unicode="&#x159;" horiz-adv-x="449" 
d="M235 482v-104h4l27 37t24.5 33t20.5 20.5t27.5 16t31.5 3.5q77 0 77 -82q0 -40 -18 -60.5t-43 -20.5q-26 0 -52 21t-31 21q-26 0 -66 -45v-206q0 -47 20.5 -61.5t76.5 -14.5v-40h-314v40q48 0 61 13t13 56v245q0 29 -8.5 42.5t-33.5 13.5l-31 -2v43l157 31h57zM76 674h58
l94 -86l95 86h59l-107 -153h-93z" />
    <glyph glyph-name="Sacute" unicode="&#x15a;" horiz-adv-x="529" 
d="M463 458h-47q-22 89 -57.5 126t-93.5 37q-107 0 -107 -78q0 -25 9.5 -44t32.5 -35.5t40.5 -26t54.5 -26.5q10 -5 15 -7q42 -19 71 -36.5t58.5 -44t44.5 -63t15 -81.5q0 -91 -68 -141t-183 -50q-58 0 -97 15t-41 15q-11 0 -18.5 -8.5t-7.5 -22.5h-43l-9 216h50
q23 -93 55.5 -126t95.5 -33q54 0 89.5 21t35.5 68q0 25 -9 46t-19.5 34.5t-35 29.5t-38 22.5l-46.5 22.5q-44 22 -68 36.5t-52.5 40t-41 58.5t-12.5 77q0 82 59 125t163 43q44 0 84.5 -12t46.5 -12q25 0 30 24h38zM153 698l101 133h121v-32l-157 -101h-65z" />
    <glyph glyph-name="sacute" unicode="&#x15b;" horiz-adv-x="440" 
d="M36 177h44q15 -73 43 -106.5t81 -33.5q37 0 58.5 14t21.5 42q0 24 -22.5 43.5t-91.5 51.5q-72 35 -102.5 67.5t-30.5 93.5q0 63 45 99.5t126 36.5q57 0 113 -34h4l15 25h41l3 -163h-44q-19 69 -47.5 97t-71.5 28q-33 0 -50 -15t-17 -38q0 -9 2 -16.5t8 -14.5t10.5 -11.5
t17 -11l19.5 -10l25 -12l28 -13.5q40 -19 61 -31t44 -31.5t33 -43.5t10 -57q0 -145 -197 -145q-61 0 -117 28h-4l-22 -28h-32zM154 521l69 163h113v-32l-133 -131h-49z" />
    <glyph glyph-name="Scircumflex" unicode="&#x15c;" horiz-adv-x="529" 
d="M463 458h-47q-22 89 -57.5 126t-93.5 37q-107 0 -107 -78q0 -25 9.5 -44t32.5 -35.5t40.5 -26t54.5 -26.5q10 -5 15 -7q42 -19 71 -36.5t58.5 -44t44.5 -63t15 -81.5q0 -91 -68 -141t-183 -50q-58 0 -97 15t-41 15q-11 0 -18.5 -8.5t-7.5 -22.5h-43l-9 216h50
q23 -93 55.5 -126t95.5 -33q54 0 89.5 21t35.5 68q0 25 -9 46t-19.5 34.5t-35 29.5t-38 22.5l-46.5 22.5q-44 22 -68 36.5t-52.5 40t-41 58.5t-12.5 77q0 82 59 125t163 43q44 0 84.5 -12t46.5 -12q25 0 30 24h38zM424 698h-62l-104 68l-102 -68h-63l118 139h93z" />
    <glyph glyph-name="scircumflex" unicode="&#x15d;" horiz-adv-x="440" 
d="M36 177h44q15 -73 43 -106.5t81 -33.5q37 0 58.5 14t21.5 42q0 24 -22.5 43.5t-91.5 51.5q-72 35 -102.5 67.5t-30.5 93.5q0 63 45 99.5t126 36.5q57 0 113 -34h4l15 25h41l3 -163h-44q-19 69 -47.5 97t-71.5 28q-33 0 -50 -15t-17 -38q0 -9 2 -16.5t8 -14.5t10.5 -11.5
t17 -11l19.5 -10l25 -12l28 -13.5q40 -19 61 -31t44 -31.5t33 -43.5t10 -57q0 -145 -197 -145q-61 0 -117 28h-4l-22 -28h-32zM366 521h-58l-94 91l-95 -91h-59l107 163h93z" />
    <glyph glyph-name="uni015E" unicode="&#x15e;" horiz-adv-x="529" 
d="M463 458h-47q-22 89 -57.5 126t-93.5 37q-107 0 -107 -78q0 -25 9.5 -44t32.5 -35.5t40.5 -26t54.5 -26.5q10 -5 15 -7q42 -19 71 -36.5t58.5 -44t44.5 -63t15 -81.5q0 -90 -66.5 -139.5t-179.5 -51.5l-10 -41q12 2 24 2q43 0 69.5 -21t26.5 -58q0 -45 -32.5 -68
t-86.5 -23q-45 0 -92 37l18 32q31 -21 65 -21q50 0 50 41q0 35 -42 35l-33 -3l-16 16l19 74q-39 3 -68.5 15.5t-34.5 12.5q-11 0 -18.5 -8.5t-7.5 -22.5h-43l-9 216h50q23 -93 55.5 -126t95.5 -33q54 0 89.5 21t35.5 68q0 25 -9 46t-19.5 34.5t-35 29.5t-38 22.5l-46.5 22.5
q-44 22 -68 36.5t-52.5 40t-41 58.5t-12.5 77q0 82 59 125t163 43q44 0 84.5 -12t46.5 -12q25 0 30 24h38z" />
    <glyph glyph-name="uni015F" unicode="&#x15f;" horiz-adv-x="440" 
d="M36 177h44q15 -73 43 -106.5t81 -33.5q37 0 58.5 14t21.5 42q0 24 -22.5 43.5t-91.5 51.5q-72 35 -102.5 67.5t-30.5 93.5q0 63 45 99.5t126 36.5q57 0 113 -34h4l15 25h41l3 -163h-44q-19 69 -47.5 97t-71.5 28q-33 0 -50 -15t-17 -38q0 -9 2 -16.5t8 -14.5t10.5 -11.5
t17 -11l19.5 -10l25 -12l28 -13.5q40 -19 61 -31t44 -31.5t33 -43.5t10 -57q0 -145 -197 -145h-7l-10 -41q12 2 24 2q43 0 69.5 -21t26.5 -58q0 -45 -32.5 -68t-86.5 -23q-45 0 -92 37l18 32q31 -21 65 -21q50 0 50 41q0 35 -42 35l-33 -3l-16 16l19 76q-32 5 -70 24h-4
l-22 -28h-32z" />
    <glyph glyph-name="Scaron" unicode="&#x160;" horiz-adv-x="529" 
d="M463 458h-47q-22 89 -57.5 126t-93.5 37q-107 0 -107 -78q0 -25 9.5 -44t32.5 -35.5t40.5 -26t54.5 -26.5q10 -5 15 -7q42 -19 71 -36.5t58.5 -44t44.5 -63t15 -81.5q0 -91 -68 -141t-183 -50q-58 0 -97 15t-41 15q-11 0 -18.5 -8.5t-7.5 -22.5h-43l-9 216h50
q23 -93 55.5 -126t95.5 -33q54 0 89.5 21t35.5 68q0 25 -9 46t-19.5 34.5t-35 29.5t-38 22.5l-46.5 22.5q-44 22 -68 36.5t-52.5 40t-41 58.5t-12.5 77q0 82 59 125t163 43q44 0 84.5 -12t46.5 -12q25 0 30 24h38zM92 837h62l104 -68l102 68h63l-118 -139h-93z" />
    <glyph glyph-name="scaron" unicode="&#x161;" horiz-adv-x="440" 
d="M36 177h44q15 -73 43 -106.5t81 -33.5q37 0 58.5 14t21.5 42q0 24 -22.5 43.5t-91.5 51.5q-72 35 -102.5 67.5t-30.5 93.5q0 63 45 99.5t126 36.5q57 0 113 -34h4l15 25h41l3 -163h-44q-19 69 -47.5 97t-71.5 28q-33 0 -50 -15t-17 -38q0 -9 2 -16.5t8 -14.5t10.5 -11.5
t17 -11l19.5 -10l25 -12l28 -13.5q40 -19 61 -31t44 -31.5t33 -43.5t10 -57q0 -145 -197 -145q-61 0 -117 28h-4l-22 -28h-32zM60 674h58l94 -86l95 86h59l-107 -153h-93z" />
    <glyph glyph-name="uni0162" unicode="&#x162;" horiz-adv-x="659" 
d="M644 459h-50q-10 47 -17 69t-22.5 41.5t-40 25.5t-66.5 6h-44v-456q0 -68 16 -85t80 -17v-43h-172l-13 -53q12 2 24 2q43 0 69.5 -21t26.5 -58q0 -45 -32.5 -68t-86.5 -23q-45 0 -92 37l18 32q32 -21 65 -21q50 0 50 41q0 35 -42 35l-33 -3l-16 16l22 84h-131v43
q65 0 81.5 17t16.5 85v456h-45q-42 0 -66.5 -6t-40 -25.5t-22.5 -42t-16 -68.5h-50l11 198h609z" />
    <glyph glyph-name="uni0163" unicode="&#x163;" horiz-adv-x="382" 
d="M357 112l25 -28q-26 -34 -42.5 -50.5t-51.5 -31.5t-83 -16l-9 -39q12 2 24 2q43 0 69.5 -21t26.5 -58q0 -45 -32.5 -68t-86.5 -23q-45 0 -92 37l18 32q31 -21 65 -21q50 0 50 41q0 35 -42 35l-33 -3l-16 16l19 73q-42 8 -62 42t-20 105v276h-63v42q99 60 147 161h60
l-1 -142h125v-61h-125v-241q0 -54 10.5 -73t39.5 -19q27 0 43 7.5t37 25.5z" />
    <glyph glyph-name="Tcaron" unicode="&#x164;" horiz-adv-x="659" 
d="M644 459h-50q-10 47 -17 69t-22.5 41.5t-40 25.5t-66.5 6h-44v-456q0 -68 16 -85t80 -17v-43h-343v43q65 0 81.5 17t16.5 85v456h-45q-42 0 -66.5 -6t-40 -25.5t-22.5 -42t-16 -68.5h-50l11 198h609zM164 837h62l104 -68l102 68h63l-118 -139h-93z" />
    <glyph glyph-name="tcaron" unicode="&#x165;" horiz-adv-x="426" 
d="M357 112l25 -28q-20 -26 -32 -39t-33.5 -29t-49.5 -23t-66 -7q-61 0 -89 33.5t-28 116.5v276h-63v42q99 60 147 161h60l-1 -142h125v-61h-125v-241q0 -54 10.5 -73t39.5 -19q27 0 43 7.5t37 25.5zM294 531l12 202h105v-35q-5 -72 -69 -174z" />
    <glyph glyph-name="Tbar" unicode="&#x166;" horiz-adv-x="659" 
d="M644 459h-50q-10 47 -17 69t-22.5 41.5t-40 25.5t-66.5 6h-44v-223h126v-62h-126v-171q0 -68 16 -85t80 -17v-43h-343v43q65 0 81.5 17t16.5 85v171h-127v62h127v223h-45q-42 0 -66.5 -6t-40 -25.5t-22.5 -42t-16 -68.5h-50l11 198h609z" />
    <glyph glyph-name="tbar" unicode="&#x167;" horiz-adv-x="395" 
d="M360 112l25 -28q-20 -26 -32 -39t-33.5 -29t-49.5 -23t-66 -7q-61 0 -89 33.5t-28 116.5v118h-62v60h62v98h-63v42q99 60 147 161h60l-1 -142h125v-61h-125v-98h125v-60h-125v-83q0 -54 10.5 -73t39.5 -19q27 0 43 7.5t37 25.5z" />
    <glyph glyph-name="Utilde" unicode="&#x168;" horiz-adv-x="799" 
d="M787 657v-43q-63 0 -79 -23t-16 -103v-224q0 -142 -65 -210t-211 -68q-156 0 -225 61t-69 200v279q0 53 -18 70.5t-76 17.5v43h337v-43q-60 0 -77 -18t-17 -75v-256q0 -103 37 -149t133 -46q95 0 137.5 43t42.5 145v227q0 82 -16 105.5t-78 23.5v43h260zM582 816h38
q-11 -58 -35.5 -84t-67.5 -26q-19 0 -68.5 14.5t-70.5 14.5q-40 0 -53 -34h-39q8 51 35 81.5t66 30.5q19 0 70.5 -14.5t74.5 -14.5q37 0 50 32z" />
    <glyph glyph-name="utilde" unicode="&#x169;" horiz-adv-x="631" 
d="M615 60v-37l-173 -29h-39v87h-4q-50 -53 -84.5 -72t-83.5 -19q-77 0 -112.5 39.5t-35.5 136.5v193q0 44 -13 54t-57 11v41l166 13h47v-283q0 -66 16.5 -86.5t53.5 -20.5q30 0 51 10t51 35v230q0 41 -16 51t-69 10v41l187 13h41v-343q0 -47 13.5 -61t54.5 -14h6zM445 657
h38q-12 -60 -37.5 -90.5t-70.5 -30.5q-31 0 -71 19.5t-60 19.5q-40 0 -52 -42h-39q9 52 37 86t69 34q33 0 72 -19.5t59 -19.5q42 0 55 43z" />
    <glyph glyph-name="Umacron" unicode="&#x16a;" horiz-adv-x="799" 
d="M787 657v-43q-63 0 -79 -23t-16 -103v-224q0 -142 -65 -210t-211 -68q-156 0 -225 61t-69 200v279q0 53 -18 70.5t-76 17.5v43h337v-43q-60 0 -77 -18t-17 -75v-256q0 -103 37 -149t133 -46q95 0 137.5 43t42.5 145v227q0 82 -16 105.5t-78 23.5v43h260zM605 726h-314v78
h314v-78z" />
    <glyph glyph-name="umacron" unicode="&#x16b;" horiz-adv-x="631" 
d="M615 60v-37l-173 -29h-39v87h-4q-50 -53 -84.5 -72t-83.5 -19q-77 0 -112.5 39.5t-35.5 136.5v193q0 44 -13 54t-57 11v41l166 13h47v-283q0 -66 16.5 -86.5t53.5 -20.5q30 0 51 10t51 35v230q0 41 -16 51t-69 10v41l187 13h41v-343q0 -47 13.5 -61t54.5 -14h6zM458 555
h-290v75h290v-75z" />
    <glyph glyph-name="Ubreve" unicode="&#x16c;" horiz-adv-x="799" 
d="M787 657v-43q-63 0 -79 -23t-16 -103v-224q0 -142 -65 -210t-211 -68q-156 0 -225 61t-69 200v279q0 53 -18 70.5t-76 17.5v43h337v-43q-60 0 -77 -18t-17 -75v-256q0 -103 37 -149t133 -46q95 0 137.5 43t42.5 145v227q0 82 -16 105.5t-78 23.5v43h260zM564 850h42
q-16 -150 -158 -150q-153 0 -159 150h42q8 -34 40.5 -52.5t75.5 -18.5q42 0 75 18.5t42 52.5z" />
    <glyph glyph-name="ubreve" unicode="&#x16d;" horiz-adv-x="631" 
d="M615 60v-37l-173 -29h-39v87h-4q-50 -53 -84.5 -72t-83.5 -19q-77 0 -112.5 39.5t-35.5 136.5v193q0 44 -13 54t-57 11v41l166 13h47v-283q0 -66 16.5 -86.5t53.5 -20.5q30 0 51 10t51 35v230q0 41 -16 51t-69 10v41l187 13h41v-343q0 -47 13.5 -61t54.5 -14h6zM429 687
h40q-16 -158 -156 -158q-71 0 -112.5 40t-44.5 118h40q10 -44 38.5 -59.5t78.5 -15.5q49 0 75.5 15.5t40.5 59.5z" />
    <glyph glyph-name="Uring" unicode="&#x16e;" horiz-adv-x="799" 
d="M787 657v-43q-63 0 -79 -23t-16 -103v-224q0 -142 -65 -210t-211 -68q-156 0 -225 61t-69 200v279q0 53 -18 70.5t-76 17.5v43h337v-43q-60 0 -77 -18t-17 -75v-256q0 -103 37 -149t133 -46q95 0 137.5 43t42.5 145v227q0 82 -16 105.5t-78 23.5v43h260zM565 802
q0 -47 -34 -74.5t-83 -27.5t-83 27.5t-34 75.5q0 45 34 73t83 28t83 -28t34 -74zM495 803q0 23 -11.5 37t-35.5 14q-46 0 -46 -51t46 -51q47 0 47 51z" />
    <glyph glyph-name="uring" unicode="&#x16f;" horiz-adv-x="631" 
d="M615 60v-37l-173 -29h-39v87h-4q-50 -53 -84.5 -72t-83.5 -19q-77 0 -112.5 39.5t-35.5 136.5v193q0 44 -13 54t-57 11v41l166 13h47v-283q0 -66 16.5 -86.5t53.5 -20.5q30 0 51 10t51 35v230q0 41 -16 51t-69 10v41l187 13h41v-343q0 -47 13.5 -61t54.5 -14h6zM424 633
q0 -50 -31 -77.5t-80 -27.5q-47 0 -79 28t-32 78q0 47 32 76t79 29q48 0 79.5 -29t31.5 -77zM359 634q0 24 -11.5 39t-34.5 15q-45 0 -45 -54t45 -54q46 0 46 54z" />
    <glyph glyph-name="Uhungarumlaut" unicode="&#x170;" horiz-adv-x="799" 
d="M787 657v-43q-63 0 -79 -23t-16 -103v-224q0 -142 -65 -210t-211 -68q-156 0 -225 61t-69 200v279q0 53 -18 70.5t-76 17.5v43h337v-43q-60 0 -77 -18t-17 -75v-256q0 -103 37 -149t133 -46q95 0 137.5 43t42.5 145v227q0 82 -16 105.5t-78 23.5v43h260zM304 698l82 133
h121v-32l-138 -101h-65zM484 698l82 133h121v-32l-138 -101h-65z" />
    <glyph glyph-name="uhungarumlaut" unicode="&#x171;" horiz-adv-x="631" 
d="M615 60v-37l-173 -29h-39v87h-4q-50 -53 -84.5 -72t-83.5 -19q-77 0 -112.5 39.5t-35.5 136.5v193q0 44 -13 54t-57 11v41l166 13h47v-283q0 -66 16.5 -86.5t53.5 -20.5q30 0 51 10t51 35v230q0 41 -16 51t-69 10v41l187 13h41v-343q0 -47 13.5 -61t54.5 -14h6zM178 521
l61 163h113v-32l-125 -131h-49zM351 521l61 163h113v-32l-125 -131h-49z" />
    <glyph glyph-name="Uogonek" unicode="&#x172;" horiz-adv-x="809" 
d="M589 -126l23 -28q-33 -33 -63.5 -50t-71.5 -17q-51 0 -82.5 24.5t-31.5 62.5q0 28 14.5 52.5t27 35t36.5 28.5v5q-9 -1 -28 -1q-156 0 -225 61t-69 200v279q0 53 -18 70.5t-76 17.5v43h337v-43q-60 0 -77 -18t-17 -75v-256q0 -103 37 -149t133 -46q95 0 137.5 43
t42.5 145v227q0 82 -16 105.5t-78 23.5v43h260v-43q-63 0 -79 -23t-16 -103v-224q0 -108 -37.5 -173t-118.5 -90q-46 -30 -58 -48q-16 -22 -16 -53q0 -55 50 -55q27 0 41.5 5.5t38.5 23.5z" />
    <glyph glyph-name="uogonek" unicode="&#x173;" horiz-adv-x="633" 
d="M535 -126l23 -28q-33 -33 -63.5 -50t-71.5 -17q-51 0 -82.5 24.5t-31.5 62.5q0 26 8 47t26 38t27.5 24t32.5 22v84h-4q-50 -53 -84.5 -72t-83.5 -19q-77 0 -112.5 39.5t-35.5 136.5v193q0 44 -13 54t-57 11v41l166 13h47v-283q0 -66 16.5 -86.5t53.5 -20.5q30 0 51 10
t51 35v230q0 41 -16 51t-69 10v41l187 13h41v-343q0 -47 13.5 -61t54.5 -14h6v-37l-138 -23q-1 0 -10.5 -7t-10.5 -7.5t-9.5 -7t-10 -8.5t-8 -8t-8.5 -10t-6 -10.5t-5 -12.5t-2.5 -13.5t-1.5 -15.5q0 -55 50 -55q27 0 41.5 5.5t38.5 23.5z" />
    <glyph glyph-name="Wcircumflex" unicode="&#x174;" horiz-adv-x="1046" 
d="M1042 657v-43q-33 0 -50 -15.5t-31 -54.5l-190 -552h-94l-134 361h-6l-143 -361h-88l-213 524q-21 54 -40 74t-53 24v43h309v-43q-36 0 -49.5 -7.5t-13.5 -23.5q0 -19 10 -48l112 -274l26 -79h7l108 268l-23 68q-22 64 -38.5 80t-58.5 16v43h312v-43q-35 0 -54.5 -10
t-19.5 -25q0 -23 15 -60l95 -256l25 -81h7l103 314q14 40 14 67q0 31 -17.5 41t-51.5 10v43h225zM719 698h-62l-104 68l-102 -68h-63l118 139h93z" />
    <glyph glyph-name="wcircumflex" unicode="&#x175;" horiz-adv-x="847" 
d="M869 473v-40q-28 0 -44.5 -13t-30.5 -47l-162 -380h-96l-98 268h-4l-120 -268h-95l-159 378q-16 40 -30 51t-47 11v40h270v-40q-28 0 -38 -4.5t-10 -15.5q0 -14 10 -41l79 -188l18 -56h8l21 57l70 155l-11 31q-15 42 -26.5 52t-44.5 10v40h248v-40q-47 0 -47 -20
q0 -14 10 -41l71 -188l18 -56h7l19 57l72 194q6 16 6 30q0 24 -65 24v40h201zM596 521h-58l-94 91l-95 -91h-59l107 163h93z" />
    <glyph glyph-name="Ycircumflex" unicode="&#x176;" horiz-adv-x="676" 
d="M686 657v-43q-45 -2 -67.5 -17t-53.5 -69l-150 -279v-112q0 -63 19 -78.5t82 -15.5v-43h-349v43q67 0 83 14.5t16 79.5v113l-135 229q-53 90 -78 112.5t-63 22.5v43h311v-43q-38 0 -50 -5.5t-12 -17.5q0 -16 15 -43l84 -152l38 -81h7l123 242q10 16 10 32q0 12 -11 18.5
t-46 6.5v43h227zM522 698h-62l-104 68l-102 -68h-63l118 139h93z" />
    <glyph glyph-name="ycircumflex" unicode="&#x177;" horiz-adv-x="530" 
d="M552 473v-39q-28 0 -41.5 -11.5t-26.5 -40.5l-178 -398q-46 -105 -96.5 -152t-115.5 -47q-83 0 -83 65q0 24 13.5 37.5t35.5 13.5q18 0 45 -12t44 -12q32 0 59 38.5t27 71.5q0 28 -52 129l-143 283q-18 35 -61 35v39h270v-40q-31 0 -43 -6t-12 -21q0 -12 15 -42l90 -181
l19 -51h5l91 259q3 12 3 19q0 24 -50 24v39h185zM440 521h-58l-94 91l-95 -91h-59l107 163h93z" />
    <glyph glyph-name="Ydieresis" unicode="&#x178;" horiz-adv-x="676" 
d="M686 657v-43q-45 -2 -67.5 -17t-53.5 -69l-150 -279v-112q0 -63 19 -78.5t82 -15.5v-43h-349v43q67 0 83 14.5t16 79.5v113l-135 229q-53 90 -78 112.5t-63 22.5v43h311v-43q-38 0 -50 -5.5t-12 -17.5q0 -16 15 -43l84 -152l38 -81h7l123 242q10 16 10 32q0 12 -11 18.5
t-46 6.5v43h227zM245 833q36 0 55.5 -17.5t19.5 -48.5q0 -32 -19.5 -50t-55.5 -18q-35 0 -54.5 18t-19.5 49t19 49t55 18zM465 834q36 0 55.5 -17.5t19.5 -48.5q0 -32 -19.5 -50t-55.5 -18q-35 0 -54.5 18t-19.5 49t19 49t55 18z" />
    <glyph glyph-name="Zacute" unicode="&#x179;" horiz-adv-x="618" 
d="M590 209l-24 -209h-538v55l376 534v5h-150q-72 0 -104 -25.5t-46 -105.5h-53l13 194h523v-55l-372 -535v-6h144q90 0 123.5 31.5t52.5 116.5h55zM215 698l101 133h121v-32l-157 -101h-65z" />
    <glyph glyph-name="zacute" unicode="&#x17a;" horiz-adv-x="495" 
d="M458 169l-10 -169h-414v44l260 374v4h-90q-90 0 -106 -108h-45l5 159h397v-47l-260 -372v-5h85q60 0 90 24.5t41 95.5h47zM201 521l69 163h113v-32l-133 -131h-49z" />
    <glyph glyph-name="Zdotaccent" unicode="&#x17b;" horiz-adv-x="618" 
d="M590 209l-24 -209h-538v55l376 534v5h-150q-72 0 -104 -25.5t-46 -105.5h-53l13 194h523v-55l-372 -535v-6h144q90 0 123.5 31.5t52.5 116.5h55zM406 772q0 -35 -22.5 -56t-62.5 -21q-42 0 -65 21t-23 56t23.5 55t64.5 20q40 0 62.5 -20t22.5 -55z" />
    <glyph glyph-name="zdotaccent" unicode="&#x17c;" horiz-adv-x="495" 
d="M458 169l-10 -169h-414v44l260 374v4h-90q-90 0 -106 -108h-45l5 159h397v-47l-260 -372v-5h85q60 0 90 24.5t41 95.5h47zM340 615q0 -36 -21 -57.5t-59 -21.5t-59.5 21.5t-21.5 57.5q0 35 22 56t59 21q38 0 59 -21t21 -56z" />
    <glyph glyph-name="Zcaron" unicode="&#x17d;" horiz-adv-x="618" 
d="M590 209l-24 -209h-538v55l376 534v5h-150q-72 0 -104 -25.5t-46 -105.5h-53l13 194h523v-55l-372 -535v-6h144q90 0 123.5 31.5t52.5 116.5h55zM154 837h62l104 -68l102 68h63l-118 -139h-93z" />
    <glyph glyph-name="zcaron" unicode="&#x17e;" horiz-adv-x="495" 
d="M458 169l-10 -169h-414v44l260 374v4h-90q-90 0 -106 -108h-45l5 159h397v-47l-260 -372v-5h85q60 0 90 24.5t41 95.5h47zM107 674h58l94 -86l95 86h59l-107 -153h-93z" />
    <glyph glyph-name="longs" unicode="&#x17f;" horiz-adv-x="329" 
d="M13 473h81v27q0 95 62.5 156t162.5 61q136 0 136 -86q0 -28 -17.5 -42.5t-40.5 -14.5t-35.5 11t-26.5 41q-13 26 -22.5 34t-24.5 8q-29 0 -40 -24.5t-11 -83.5v-426q0 -60 19 -77t84 -17v-40h-334v40q57 0 72.5 16t15.5 78v278h-81v61z" />
    <glyph glyph-name="uni0180" unicode="&#x180;" horiz-adv-x="571" 
d="M215 706v-125h150v-53h-150v-131h4q73 83 152 83q81 0 124 -55t43 -163q0 -139 -74 -206t-202 -67q-99 0 -190 41v498h-72v53h72q-1 32 -9 43.5t-34 11.5l-29 -2v43l161 29h54zM215 338v-252q25 -45 76 -45q92 0 92 194q0 152 -75 152q-47 0 -93 -49z" />
    <glyph glyph-name="uni0188" unicode="&#x188;" horiz-adv-x="496" 
d="M454 169l26 -16q-19 -40 -34 -64t-41 -50t-64 -38t-89 -12q-103 0 -161.5 62t-58.5 180q0 115 65.5 185t193.5 70q13 0 37 -2q2 39 9 69t22 57t43 41.5t68 14.5q44 0 70.5 -19.5t26.5 -53.5q0 -22 -12.5 -34t-31.5 -12q-21 0 -33.5 11t-17 24.5t-12.5 24.5t-20 11
q-65 0 -65 -129v-14q44 -13 69 -40t25 -61q0 -30 -21 -46.5t-53 -16.5q-29 0 -45.5 20t-22 43.5t-20.5 43.5t-42 20q-48 0 -69 -39.5t-21 -123.5q0 -91 29 -135t104 -44q51 0 83 17t63 56z" />
    <glyph glyph-name="uni0190" unicode="&#x190;" horiz-adv-x="572" 
d="M314 619q-115 0 -115 -109q0 -74 42.5 -101t120.5 -27h50v-64h-53q-169 0 -169 -127q0 -119 153 -119q119 0 179 69l30 -25q-35 -57 -98 -93t-150 -36q-77 0 -134 15.5t-96 58t-39 109.5q0 74 51 119t112 56v6q-77 31 -102 52q-47 39 -47 105q0 76 70 118.5t190 42.5
q114 0 171.5 -34.5t57.5 -84.5q0 -28 -18 -43.5t-45 -15.5q-23 0 -38 13t-23.5 32t-18 38t-30 32t-51.5 13z" />
    <glyph glyph-name="uni0192" unicode="&#x192;" horiz-adv-x="356" 
d="M91 -68v480h-81v61h81q0 65 10 102t46 75q34 36 72.5 51.5t96.5 15.5q136 0 136 -86q0 -28 -17.5 -42.5t-40.5 -14.5t-35.5 11t-26.5 41q-13 26 -22.5 34t-24.5 8q-29 0 -40 -24.5t-11 -83.5v-87h125v-61h-125v-394q-2 -122 -53 -176q-34 -36 -74 -51.5t-101 -15.5
q-140 0 -140 86q0 28 17.5 42.5t40.5 14.5t35.5 -11t26.5 -41q12 -26 23 -34t27 -8q30 0 42.5 24.5t12.5 83.5z" />
    <glyph glyph-name="uni0195" unicode="&#x195;" horiz-adv-x="870" 
d="M410 151v96q0 28 -1 44.5t-5 37.5t-12 32.5t-23 19.5t-36 8q-46 0 -98 -43v-238q0 -40 12 -54t60 -14v-40h-285v40q42 0 56 12t14 52v493q0 24 -12 32t-36 8l-29 -3v41l158 31h62v-305h4q44 45 77.5 64.5t77.5 19.5q78 0 118.5 -48.5t40.5 -141.5v-109q0 -56 18 -83
t69 -27q121 0 121 154q0 40 -15.5 72t-33.5 49.5t-33.5 40t-15.5 45.5q0 21 14.5 34t38.5 13q39 0 64.5 -35t34.5 -78.5t9 -92.5q0 -140 -65 -214t-183 -74q-84 0 -125 35.5t-41 125.5z" />
    <glyph glyph-name="uni0199" unicode="&#x199;" horiz-adv-x="609" 
d="M231 571v-305h8l106 116q14 16 14 29q0 12 -10 17t-40 5v40h260v-40q-39 0 -77.5 -21t-118.5 -86l-39 -32l202 -215q24 -26 38 -32.5t37 -6.5v-40h-262v40q21 0 27.5 3.5t6.5 11.5q0 11 -11 23l-132 151h-9v-126q0 -39 14 -51t58 -12v-40h-289v40q47 0 60.5 13t13.5 56
v387q0 53 10 86.5t43 67.5q64 67 178 67q140 0 140 -86q0 -28 -17.5 -42.5t-40.5 -14.5t-35 11t-27 41q-13 26 -23.5 34t-26.5 8q-30 0 -43.5 -22.5t-14.5 -74.5z" />
    <glyph glyph-name="uni019A" unicode="&#x19a;" horiz-adv-x="347" 
d="M325 40v-40h-296v40q47 0 60 14t13 58v206h-84v58h84v219q0 26 -13 34t-36 8l-31 -2v40l157 31h66v-330h81v-58h-81v-206q0 -45 14 -58.5t66 -13.5z" />
    <glyph glyph-name="uni019B" unicode="&#x19b;" horiz-adv-x="542" 
d="M108 479l-21 36l119 69q-19 29 -44 29q-18 0 -45 -10.5t-45 -10.5q-21 0 -35 14t-14 37q0 63 87 63q90 0 151 -90l113 66l23 -36l-114 -65q22 -42 35 -74l170 -416q21 -52 79 -52v-39h-199v39q53 0 53 24q0 5 -4 19l-90 248h-5l-20 -53l-89 -168q-17 -30 -17 -43
q0 -26 54 -26v-40h-270v39q48 0 67 35l216 387q-10 28 -37 87z" />
    <glyph glyph-name="uni019E" unicode="&#x19e;" horiz-adv-x="636" 
d="M559 290v-398q0 -42 13.5 -57t55.5 -15v-40h-278v40q43 0 54.5 14t11.5 58v376q0 67 -19 94t-59 27q-54 0 -100 -44v-233q0 -44 12 -58t59 -14v-40h-284v40q47 0 58 13.5t11 58.5v257q0 27 -9.5 36t-31.5 9l-27 -2v41l154 29h55v-82h4q44 44 79.5 64.5t82.5 20.5
q75 0 116.5 -49t41.5 -146z" />
    <glyph glyph-name="Ohorn" unicode="&#x1a0;" horiz-adv-x="749" 
d="M704 335q0 -163 -87 -256t-245 -93q-155 0 -240.5 89.5t-85.5 248.5q0 160 86.5 252.5t235.5 92.5q45 0 119 -13t115 -13q42 0 58 9t16 30q0 19 -17 43t-17 42q0 22 15.5 35t37.5 13q27 0 47.5 -21t20.5 -60q0 -29 -10.5 -56.5t-41 -50.5t-76.5 -23q-24 0 -39 3v-6
q108 -87 108 -266zM548 322q0 149 -46 223t-128 74t-127 -73.5t-45 -216.5q0 -139 44 -215t132 -76q170 0 170 284z" />
    <glyph glyph-name="ohorn" unicode="&#x1a1;" horiz-adv-x="551" 
d="M269 485q46 0 102 -13q32 -7 57 -7q48 0 48 37q0 20 -15.5 43t-15.5 39q0 22 16 33t37 11q27 0 46 -20t19 -58q0 -48 -29.5 -84t-84.5 -36v-4q67 -61 67 -180q0 -125 -63 -190.5t-183 -65.5q-116 0 -177 61t-61 180q0 117 60 185.5t177 68.5zM271 437q-48 0 -67.5 -47
t-19.5 -142q0 -209 93 -209q47 0 67 47.5t20 144.5q0 104 -22 155t-71 51z" />
    <glyph glyph-name="uni01A5" unicode="&#x1a5;" horiz-adv-x="567" 
d="M211 571v-169h5q42 44 75 64t79 20q76 0 120 -56t44 -169q0 -124 -62.5 -198t-156.5 -74q-59 0 -99 26h-3v-116q0 -48 19 -63t78 -15v-41h-315v40q46 0 59.5 14.5t13.5 57.5v606q0 52 10 85t43 67q64 67 178 67q140 0 140 -86q0 -28 -17.5 -42.5t-40.5 -14.5t-35 11
t-27 41q-13 26 -23.5 34t-26.5 8q-30 0 -43.5 -22.5t-14.5 -74.5zM213 343v-248q33 -50 77 -50q88 0 88 188q0 85 -18 122t-55 37q-43 0 -92 -49z" />
    <glyph glyph-name="uni01AA" unicode="&#x1aa;" horiz-adv-x="355" 
d="M130 486q-31 -18 -79 -18q-61 0 -92 31.5t-31 87.5q0 55 42 90t111 35q52 0 89.5 -16.5t56.5 -39t30 -58.5t13.5 -63t2.5 -65v-544q0 -59 11 -83.5t40 -24.5q15 0 24.5 8t22.5 34q14 30 26.5 41t35.5 11t40.5 -14.5t17.5 -42.5q0 -86 -136 -86q-111 0 -168 67t-57 177
v473zM130 532v40q0 87 -73 87q-76 0 -76 -72q0 -41 18.5 -56t63.5 -15q39 0 67 16z" />
    <glyph glyph-name="uni01AB" unicode="&#x1ab;" horiz-adv-x="382" 
d="M357 112l25 -26v-116q0 -42 -6 -73.5t-20.5 -60.5t-44 -44.5t-71.5 -15.5q-52 0 -82.5 17.5t-30.5 53.5q0 22 13 34t32 12q20 0 32.5 -11.5t17.5 -24.5t14.5 -24.5t22.5 -11.5q67 0 67 128v75h-4q-53 -38 -121 -38q-61 0 -89 33.5t-28 116.5v276h-63v42q99 60 147 161h60
l-1 -142h125v-61h-125v-241q0 -54 10.5 -73t39.5 -19q27 0 43 7.5t37 25.5z" />
    <glyph glyph-name="uni01AD" unicode="&#x1ad;" horiz-adv-x="382" 
d="M357 112l25 -28q-20 -26 -32 -39t-33.5 -29t-49.5 -23t-66 -7q-61 0 -89 33.5t-28 116.5v276h-63v42q33 20 64 46q0 50 10.5 83t42.5 67q64 67 178 67q140 0 140 -86q0 -28 -17.5 -42.5t-40.5 -14.5t-35 11t-27 41q-13 26 -23.5 34t-26.5 8q-59 0 -59 -71v-124h125v-61
h-125v-241q0 -54 10.5 -73t39.5 -19q27 0 43 7.5t37 25.5z" />
    <glyph glyph-name="Uhorn" unicode="&#x1af;" horiz-adv-x="808" 
d="M881 735q0 -46 -29.5 -73t-84.5 -43q-54 -18 -66 -42.5t-12 -88.5v-224q0 -145 -68 -211.5t-220 -66.5q-147 0 -214.5 62.5t-67.5 198.5v279q0 53 -18 70.5t-76 17.5v43h337v-43q-60 0 -77 -18t-17 -75v-256q0 -104 37 -149.5t135 -45.5q94 0 136 43.5t42 144.5v227
q0 82 -16 105.5t-78 23.5v43h197q31 0 48 5t21 10.5t4 14.5q0 17 -17 39.5t-17 40.5q0 22 15 35t37 13q28 0 48.5 -20t20.5 -60z" />
    <glyph glyph-name="uhorn" unicode="&#x1b0;" horiz-adv-x="637" 
d="M615 60v-37l-173 -29h-39v87h-4q-51 -53 -85 -72t-85 -19q-76 0 -111 40t-35 136v193q0 44 -13 54t-57 11v41l166 13h47v-283q0 -65 16.5 -86t52.5 -21q31 0 52 10t51 35v230q0 41 -16 51t-69 10v41l193 13q33 0 43.5 6t10.5 20q0 18 -15.5 40t-15.5 39q0 23 16 34t36 11
q26 0 46 -19t20 -55q0 -44 -30 -73t-76 -40v-306q0 -47 13.5 -61t54.5 -14h6z" />
    <glyph glyph-name="uni01B5" unicode="&#x1b5;" horiz-adv-x="628" 
d="M595 209l-24 -209h-538v55l184 261h-122v62h165l149 211v5h-150q-72 0 -104 -25.5t-46 -105.5h-53l13 194h523v-55l-156 -224h121v-62h-164l-173 -249v-6h144q90 0 123.5 31.5t52.5 116.5h55z" />
    <glyph glyph-name="uni01BA" unicode="&#x1ba;" horiz-adv-x="456" 
d="M282 89q0 49 -43 67.5t-121 18.5v50l150 191v6h-104q-52 0 -72 -24.5t-27 -80.5h-47l5 156h404v-46l-163 -197v-6q28 0 53 -5t51.5 -17.5t42 -37.5t15.5 -60q0 -54 -35 -87.5t-85 -47t-100 -24t-85 -29.5t-35 -51q0 -29 22 -43t56 -14q31 0 54 15.5t35.5 33.5t31.5 33.5
t42 15.5q50 0 50 -52q0 -40 -54 -62.5t-158 -22.5q-70 0 -103 29t-33 74q0 43 26 68.5t63.5 36.5l74.5 21t63 32t26 59z" />
    <glyph glyph-name="uni01BB" unicode="&#x1bb;" horiz-adv-x="514" 
d="M73 320v63h206q25 61 25 122q0 52 -23.5 81.5t-71.5 29.5q-44 0 -76 -22t-56 -75l-44 17q27 80 84 122t137 42q85 0 138.5 -50.5t53.5 -131.5q0 -72 -39 -135h70v-63h-118q-39 -45 -201 -201v-8l62 7h114q37 0 53 18t35 71h42l-31 -207h-400l1 72q167 177 214 248h-175z
" />
    <glyph glyph-name="uni01BE" unicode="&#x1be;" horiz-adv-x="451" 
d="M241 412v-56q27 -5 47.5 -10.5t47.5 -19t44 -32t29.5 -50t12.5 -72.5q0 -92 -53 -137.5t-150 -45.5q-60 0 -114 23h-2l-17 -20h-39l-3 182h40q16 -77 42.5 -107.5t76.5 -30.5q37 0 60 30.5t23 95.5q0 39 -11.5 67.5t-27 44t-42 26t-46.5 13.5t-50 6l-11 18v75h-63v42
q99 60 147 161h60l-1 -142h125v-61h-125z" />
    <glyph glyph-name="uni01C0" unicode="&#x1c0;" horiz-adv-x="274" 
d="M197 706v-706h-120v706h120z" />
    <glyph glyph-name="uni01C1" unicode="&#x1c1;" horiz-adv-x="487" 
d="M197 706v-706h-120v706h120zM410 706v-706h-120v706h120z" />
    <glyph glyph-name="uni01C2" unicode="&#x1c2;" horiz-adv-x="446" 
d="M413 226h-130v-226h-120v226h-130v93h130v86h-130v92h130v209h120v-209h130v-92h-130v-86h130v-93z" />
    <glyph glyph-name="uni01C3" unicode="&#x1c3;" horiz-adv-x="255" 
d="M100 216l-48 359q-6 56 -6 65q0 66 83 66t83 -68q0 -25 -5 -63l-52 -359h-55zM203 62q-1 -70 -77 -70q-78 0 -78 71q0 76 78 76q37 0 57.5 -20.5t19.5 -56.5z" />
    <glyph glyph-name="uni01DE" unicode="&#x1de;" horiz-adv-x="749" 
d="M740 0h-321v43q59 0 59 32q0 25 -20 76l-23 60h-230l-29 -73q-14 -40 -14 -58q0 -23 14.5 -30t53.5 -7v-43h-228v43q38 0 58 19t43 78l217 522h105l216 -524q21 -50 43.5 -72.5t55.5 -22.5v-43zM417 263l-89 249h-4l-101 -249h194zM259 823q36 0 55.5 -17.5t19.5 -48.5
q0 -32 -19.5 -50t-55.5 -18q-35 0 -54.5 18t-19.5 49t19 49t55 18zM479 824q36 0 55.5 -17.5t19.5 -48.5q0 -32 -19.5 -50t-55.5 -18q-35 0 -54.5 18t-19.5 49t19 49t55 18zM527 861h-314v78h314v-78z" />
    <glyph glyph-name="uni01DF" unicode="&#x1df;" horiz-adv-x="528" 
d="M302 53h-4q-4 -3 -13.5 -11.5t-13 -11t-11.5 -9t-12 -8.5t-11.5 -7t-12.5 -6.5l-13.5 -4t-15.5 -3.5t-16.5 -2t-19.5 -1q-58 0 -92 28t-34 86q0 29 9 52.5t27 41t36.5 30t47 23t48 16t50.5 13.5t44 12v48q0 63 -12.5 83t-49.5 20q-30 0 -40.5 -14.5t-10.5 -56.5
q0 -32 -18.5 -48t-47.5 -16q-24 0 -42.5 17.5t-18.5 49.5q0 47 52.5 79.5t136.5 32.5q194 0 194 -155v-217q0 -29 7 -38.5t24 -9.5q21 0 48 27l22 -22q-28 -41 -59 -61t-83 -20q-48 0 -68 14t-27 49zM295 97v155q-65 -20 -92 -44t-27 -77q0 -71 46 -71q35 0 73 37zM144 687
q36 0 56 -19.5t20 -52.5q0 -34 -20 -54t-56 -20q-35 0 -55 20t-20 53q0 34 19.5 53.5t55.5 19.5zM368 688q36 0 56 -19.5t20 -52.5q0 -34 -20 -54t-56 -20q-35 0 -55 20t-20 53t19.5 53t55.5 20zM402 735h-290v75h290v-75z" />
    <glyph glyph-name="uni01F0" unicode="&#x1f0;" horiz-adv-x="309" 
d="M232 482v-484q0 -116 -58 -174.5t-151 -58.5q-62 0 -99.5 22.5t-37.5 70.5q0 24 15 39.5t39 15.5q23 0 39.5 -14.5t23.5 -31.5t19 -31.5t27 -14.5q16 0 24.5 7.5t12.5 30t5 45t1 71.5v385q0 32 -10 43t-36 11l-31 -2v42l149 28h68zM-5 674h58l94 -86l95 86h59l-107 -153
h-93z" />
    <glyph glyph-name="Aringacute" unicode="&#x1fa;" horiz-adv-x="749" 
d="M740 0h-321v43q59 0 59 32q0 25 -20 76l-23 60h-230l-29 -73q-14 -40 -14 -58q0 -23 14.5 -30t53.5 -7v-43h-228v43q38 0 58 19t43 78l217 522h105l216 -524q21 -50 43.5 -72.5t55.5 -22.5v-43zM417 263l-89 249h-4l-101 -249h194zM487 787q0 -47 -34 -74.5t-83 -27.5
t-83 27.5t-34 75.5q0 45 34 73t83 28t83 -28t34 -74zM417 788q0 23 -11.5 37t-35.5 14q-46 0 -46 -51t46 -51q47 0 47 51zM265 903l101 133h121v-32l-157 -101h-65z" />
    <glyph glyph-name="aringacute" unicode="&#x1fb;" horiz-adv-x="528" 
d="M302 53h-4q-4 -3 -13.5 -11.5t-13 -11t-11.5 -9t-12 -8.5t-11.5 -7t-12.5 -6.5l-13.5 -4t-15.5 -3.5t-16.5 -2t-19.5 -1q-58 0 -92 28t-34 86q0 29 9 52.5t27 41t36.5 30t47 23t48 16t50.5 13.5t44 12v48q0 63 -12.5 83t-49.5 20q-30 0 -40.5 -14.5t-10.5 -56.5
q0 -32 -18.5 -48t-47.5 -16q-24 0 -42.5 17.5t-18.5 49.5q0 47 52.5 79.5t136.5 32.5q194 0 194 -155v-217q0 -29 7 -38.5t24 -9.5q21 0 48 27l22 -22q-28 -41 -59 -61t-83 -20q-48 0 -68 14t-27 49zM295 97v155q-65 -20 -92 -44t-27 -77q0 -71 46 -71q35 0 73 37zM368 623
q0 -50 -31 -77.5t-80 -27.5q-47 0 -79 28t-32 78q0 47 32 76t79 29q48 0 79.5 -29t31.5 -77zM303 624q0 24 -11.5 39t-34.5 15q-45 0 -45 -54t45 -54q46 0 46 54zM152 753l101 133h121v-32l-157 -101h-65z" />
    <glyph glyph-name="AEacute" unicode="&#x1fc;" horiz-adv-x="965" 
d="M954 197l-26 -197h-576v43q67 0 82 18.5t15 96.5v143h-167l-95 -169q-15 -26 -15 -51q0 -22 15 -30t52 -8v-43h-237v43q40 0 62.5 21.5t55.5 82.5l226 395q13 26 13 42q0 19 -15.5 25t-48.5 6v42h623l6 -181h-51q-10 73 -38.5 95.5t-102.5 22.5h-135v-239h87
q72 0 91.5 13.5t19.5 71.5h47v-228h-47q0 59 -20 74t-91 15h-87v-240h116q96 0 132 24.5t60 111.5h49zM449 355v239h-7l-134 -239h141zM523 698l101 133h121v-32l-157 -101h-65z" />
    <glyph glyph-name="aeacute" unicode="&#x1fd;" horiz-adv-x="760" 
d="M346 66h-6q-42 -38 -83 -57.5t-98 -19.5q-58 0 -92 28t-34 86q0 29 9 53t28 41.5t37 30.5t48 24t49 17t51 14.5l44 11.5v44q0 60 -14.5 81.5t-43.5 21.5q-59 0 -59 -71q0 -32 -18.5 -48t-47.5 -16q-24 0 -42.5 17t-18.5 47q0 50 56.5 82.5t133.5 32.5q94 0 135 -62h5
q58 61 137 61q94 0 149.5 -58.5t56.5 -169.5h-294q0 -85 32 -122.5t96 -37.5q54 0 87 16.5t59 50.5l26 -18q-18 -34 -26 -47.5t-29 -40t-41 -38t-53.5 -21.5t-75.5 -10q-109 0 -163 77zM324 106q-26 60 -26 145q-62 -20 -92 -44.5t-30 -75.5q0 -71 46 -71q54 0 102 46z
M433 304h138q0 137 -63 137q-39 0 -55.5 -31.5t-19.5 -105.5zM320 521l69 163h113v-32l-133 -131h-49z" />
    <glyph glyph-name="Oslashacute" unicode="&#x1fe;" horiz-adv-x="749" 
d="M132 -16l-50 42l45 53q-81 90 -81 250q0 158 87.5 249t241.5 91q124 0 204 -56l53 62l50 -42l-54 -63q76 -87 76 -232q0 -165 -86 -258.5t-243 -93.5q-118 0 -198 51zM202 335q0 -88 16 -149l291 344q-45 89 -137 89q-80 0 -125 -74t-45 -210zM548 335q0 65 -13 124
l-291 -343q44 -78 132 -78t130 72t42 225zM269 698l101 133h121v-32l-157 -101h-65z" />
    <glyph glyph-name="oslashacute" unicode="&#x1ff;" horiz-adv-x="548" 
d="M277 485q90 0 149 -39l43 47l36 -31l-42 -47q53 -61 53 -164q0 -128 -62 -194.5t-180 -66.5q-94 0 -152 37l-49 -54l-36 30l49 55q-54 62 -54 182q0 110 62 177.5t183 67.5zM269 437q-85 0 -85 -187q0 -43 3 -76l164 186q-23 77 -82 77zM364 243q0 22 -2 56l-164 -185
q21 -75 79 -75q48 0 67.5 48.5t19.5 155.5zM217 521l69 163h113v-32l-133 -131h-49z" />
    <glyph glyph-name="uni0218" unicode="&#x218;" horiz-adv-x="529" 
d="M463 458h-47q-22 89 -57.5 126t-93.5 37q-107 0 -107 -78q0 -25 9.5 -44t32.5 -35.5t40.5 -26t54.5 -26.5q10 -5 15 -7q42 -19 71 -36.5t58.5 -44t44.5 -63t15 -81.5q0 -91 -68 -141t-183 -50q-58 0 -97 15t-41 15q-11 0 -18.5 -8.5t-7.5 -22.5h-43l-9 216h50
q23 -93 55.5 -126t95.5 -33q54 0 89.5 21t35.5 68q0 25 -9 46t-19.5 34.5t-35 29.5t-38 22.5l-46.5 22.5q-44 22 -68 36.5t-52.5 40t-41 58.5t-12.5 77q0 82 59 125t163 43q44 0 84.5 -12t46.5 -12q25 0 30 24h38zM200 -302l-15 32q83 33 83 108q-18 -7 -35 -7
q-27 0 -43.5 16.5t-16.5 44.5q0 31 19 50.5t55 19.5q42 0 65 -27.5t23 -75.5q0 -114 -135 -161z" />
    <glyph glyph-name="uni0219" unicode="&#x219;" horiz-adv-x="440" 
d="M36 177h44q15 -73 43 -106.5t81 -33.5q37 0 58.5 14t21.5 42q0 24 -22.5 43.5t-91.5 51.5q-72 35 -102.5 67.5t-30.5 93.5q0 63 45 99.5t126 36.5q57 0 113 -34h4l15 25h41l3 -163h-44q-19 69 -47.5 97t-71.5 28q-33 0 -50 -15t-17 -38q0 -9 2 -16.5t8 -14.5t10.5 -11.5
t17 -11l19.5 -10l25 -12l28 -13.5q40 -19 61 -31t44 -31.5t33 -43.5t10 -57q0 -145 -197 -145q-61 0 -117 28h-4l-22 -28h-32zM165 -302l-15 32q83 33 83 108q-18 -7 -35 -7q-27 0 -43.5 16.5t-16.5 44.5q0 31 19 50.5t55 19.5q42 0 65 -27.5t23 -75.5q0 -114 -135 -161z
" />
    <glyph glyph-name="uni021A" unicode="&#x21a;" horiz-adv-x="659" 
d="M644 459h-50q-10 47 -17 69t-22.5 41.5t-40 25.5t-66.5 6h-44v-456q0 -68 16 -85t80 -17v-43h-343v43q65 0 81.5 17t16.5 85v456h-45q-42 0 -66.5 -6t-40 -25.5t-22.5 -42t-16 -68.5h-50l11 198h609zM282 -302l-15 32q83 33 83 108q-18 -7 -35 -7q-27 0 -43.5 16.5
t-16.5 44.5q0 31 19 50.5t55 19.5q42 0 65 -27.5t23 -75.5q0 -114 -135 -161z" />
    <glyph glyph-name="uni021B" unicode="&#x21b;" horiz-adv-x="382" 
d="M357 112l25 -28q-20 -26 -32 -39t-33.5 -29t-49.5 -23t-66 -7q-61 0 -89 33.5t-28 116.5v276h-63v42q99 60 147 161h60l-1 -142h125v-61h-125v-241q0 -54 10.5 -73t39.5 -19q27 0 43 7.5t37 25.5zM163 -302l-15 32q83 33 83 108q-18 -7 -35 -7q-27 0 -43.5 16.5
t-16.5 44.5q0 31 19 50.5t55 19.5q42 0 65 -27.5t23 -75.5q0 -114 -135 -161z" />
    <glyph glyph-name="uni0221" unicode="&#x221;" horiz-adv-x="749" 
d="M502 706v-568q0 -67 19 -89h4q21 37 35.5 57t43 40t62.5 20q29 1 53.5 -15.5t24.5 -54.5q0 -32 -16.5 -54t-48 -32.5t-62.5 -15t-74 -5.5q-47 -78 -79 -143l-45 16q22 42 73 126v3q-114 5 -128 68h-4q-79 -69 -157 -69q-83 0 -127 65.5t-44 166.5q0 131 63 197t164 66
q52 0 97 -22h3v114q0 33 -8 42.5t-36 9.5l-29 -1v43l160 35h56zM359 109v242q-19 75 -90 75q-82 0 -82 -174q0 -179 80 -179q27 0 45 8t47 28zM571 38q23 -1 50 -0.5t49.5 14t22.5 37.5q0 30 -30 30q-17 0 -31 -6t-26 -20.5t-17.5 -23.5t-17.5 -31z" />
    <glyph glyph-name="uni0228" unicode="&#x228;" horiz-adv-x="660" 
d="M632 197l-24 -197h-258l-13 -53q12 2 24 2q43 0 69.5 -21t26.5 -58q0 -45 -32.5 -68t-86.5 -23q-45 0 -92 37l18 32q32 -21 65 -21q50 0 50 41q0 35 -42 35l-33 -3l-16 16l22 84h-275v43q54 0 73.5 15t19.5 68v397q0 57 -16 73.5t-77 16.5v44h562l6 -181h-51
q-12 71 -38 94.5t-106 23.5h-132v-230h89q75 0 92 13.5t17 71.5h47v-231h-47q0 63 -17 77.5t-92 14.5h-89v-249h118q97 0 131.5 26t58.5 110h48z" />
    <glyph glyph-name="uni0229" unicode="&#x229;" horiz-adv-x="515" 
d="M463 164l26 -18q-17 -32 -26 -47t-30 -40.5t-41.5 -37.5t-55 -22t-76.5 -10l-10 -42q12 2 24 2q43 0 69.5 -21t26.5 -58q0 -45 -32.5 -68t-86.5 -23q-45 0 -92 37l18 32q31 -21 65 -21q50 0 50 41q0 35 -42 35l-33 -3l-16 16l19 75q-91 11 -139.5 73t-48.5 170
q0 123 68 187t172 64q97 0 153.5 -58.5t57.5 -169.5h-304q0 -85 33.5 -122.5t99.5 -37.5q97 0 151 67zM178 304h148q0 137 -68 137q-41 0 -59 -31.5t-21 -105.5z" />
    <glyph glyph-name="uni0234" unicode="&#x234;" horiz-adv-x="462" 
d="M215 706v-568q0 -67 19 -89h4q16 28 26 42.5t28 35t39.5 30t47.5 9.5q30 0 54 -17t24 -56q0 -32 -16.5 -53.5t-48.5 -31.5t-62 -14t-74 -5q-47 -78 -79 -143l-45 18q14 26 73 124v3q-74 5 -103.5 33.5t-29.5 99.5v471q0 26 -13 34t-36 8l-31 -2v40l157 31h66zM284 38
q7 -1 26 -1q96 0 96 52q0 30 -30 30q-17 0 -31 -6t-26 -20.5t-17.5 -23.5t-17.5 -31z" />
    <glyph glyph-name="uni0235" unicode="&#x235;" horiz-adv-x="806" 
d="M559 290v-152q0 -67 19 -89h4q16 28 26 42.5t28 35t39.5 30t47.5 9.5q30 0 54 -17t24 -56q0 -32 -16.5 -53.5t-48.5 -31.5t-62 -14t-74 -5q-47 -78 -79 -143l-45 18q14 26 73 124v3q-72 5 -102 32.5t-31 94.5v150q0 67 -19 94t-59 27q-54 0 -100 -44v-233q0 -44 12 -58
t59 -14v-40h-284v40q47 0 58 13.5t11 58.5v257q0 27 -9.5 36t-31.5 9l-27 -2v41l154 29h55v-82h4q44 44 79.5 64.5t82.5 20.5q75 0 116.5 -49t41.5 -146zM628 38q7 -1 26 -1q96 0 96 52q0 30 -30 30q-17 0 -31 -6t-26 -20.5t-17.5 -23.5t-17.5 -31z" />
    <glyph glyph-name="uni0236" unicode="&#x236;" horiz-adv-x="474" 
d="M84 118v294h-63v42q99 60 147 161h60l-1 -142h125v-61h-125v-279q0 -64 19 -84h4q16 28 26 42.5t28 35t39.5 30t47.5 9.5q30 0 54 -17t24 -56q0 -32 -16.5 -53.5t-48.5 -31.5t-62 -14t-74 -5q-47 -78 -79 -143l-45 18q14 26 73 124v3q-72 5 -102 32.5t-31 94.5zM296 38
q7 -1 26 -1q96 0 96 52q0 30 -30 30q-17 0 -31 -6t-26 -20.5t-17.5 -23.5t-17.5 -31z" />
    <glyph glyph-name="uni0237" unicode="&#x237;" horiz-adv-x="309" 
d="M232 482v-484q0 -116 -58 -174.5t-151 -58.5q-62 0 -99.5 22.5t-37.5 70.5q0 24 15 39.5t39 15.5q23 0 39.5 -14.5t23.5 -31.5t19 -31.5t27 -14.5q16 0 24.5 7.5t12.5 30t5 45t1 71.5v385q0 32 -10 43t-36 11l-31 -2v42l149 28h68z" />
    <glyph glyph-name="uni0250" unicode="&#x250;" horiz-adv-x="525" 
d="M222 422h4q4 3 13.5 11.5t13 11t11.5 9t12 8.5t11.5 7t12.5 6.5l13.5 4t15.5 3.5t16.5 2t19.5 1q58 0 92 -28t34 -86q0 -29 -9 -52.5t-27 -41t-36.5 -30t-47 -23t-48 -16t-50.5 -13.5t-44 -12v-48q0 -63 12.5 -83t49.5 -20q30 0 40.5 14.5t10.5 56.5q0 32 18.5 48
t47.5 16q24 0 42.5 -17.5t18.5 -49.5q0 -47 -52.5 -79.5t-136.5 -32.5q-194 0 -194 155v217q0 29 -7 38.5t-24 9.5q-21 0 -48 -27l-22 22q28 41 59 61t83 20q48 0 68 -14t27 -49zM229 378v-155q65 20 92 44t27 77q0 71 -46 71q-35 0 -73 -37z" />
    <glyph glyph-name="uni0251" unicode="&#x251;" horiz-adv-x="594" 
d="M422 478h80v-364q0 -37 11.5 -49t40.5 -12h21v-41l-179 -17h-35v64h-4q-79 -69 -154 -69q-83 0 -127 65.5t-44 166.5q0 131 63 197t164 66q41 0 65.5 -11.5t52.5 -36.5h3zM359 109v242q-19 75 -90 75q-82 0 -82 -174q0 -179 80 -179q27 0 45 8t47 28z" />
    <glyph glyph-name="uni0252" unicode="&#x252;" horiz-adv-x="596" 
d="M172 -3h-80v364q0 37 -11.5 49t-40.5 12h-21v41l179 17h35v-64h4q79 69 154 69q83 0 127 -65.5t44 -166.5q0 -131 -63 -197t-164 -66q-41 0 -65.5 11.5t-52.5 36.5h-3zM235 366v-242q19 -75 90 -75q82 0 82 174q0 179 -80 179q-27 0 -45 -8t-47 -28z" />
    <glyph glyph-name="uni0253" unicode="&#x253;" horiz-adv-x="567" 
d="M68 30v455q0 105 61.5 168.5t166.5 63.5q140 0 140 -86q0 -28 -17.5 -42.5t-40.5 -14.5t-35 11t-27 41q-13 26 -23.5 34t-26.5 8q-30 0 -42.5 -24.5t-12.5 -83.5v-158h4q73 83 152 83q81 0 124 -56.5t43 -164.5q0 -139 -74 -207t-202 -68q-99 0 -190 41zM211 343v-257
q25 -45 76 -45q92 0 92 196q0 155 -75 155q-47 0 -93 -49z" />
    <glyph glyph-name="uni0254" unicode="&#x254;" horiz-adv-x="496" 
d="M42 306l-26 16q19 40 34 64t41 50t64 38t89 12q103 0 161.5 -62t58.5 -180q0 -115 -65.5 -185t-193.5 -70q-80 0 -129 31.5t-49 80.5q0 30 21 46.5t53 16.5q29 0 45.5 -20t22 -43.5t20.5 -43.5t42 -20q48 0 69 39.5t21 123.5q0 90 -30 133.5t-105 43.5q-51 0 -82 -16
t-62 -55z" />
    <glyph glyph-name="uni0255" unicode="&#x255;" horiz-adv-x="495" 
d="M163 -125l-49 12q23 72 46 122q-129 52 -129 222q0 115 65.5 185t193.5 70q80 0 129 -31.5t49 -80.5q0 -30 -21 -46.5t-53 -16.5q-29 0 -45.5 20t-22 43.5t-20.5 43.5t-42 20q-48 0 -69 -39.5t-21 -123.5q0 -117 50 -152q38 56 73.5 85.5t82.5 29.5q48 0 73 -23t25 -65
q0 -48 -27.5 -84.5t-68.5 -53t-88.5 -23t-86.5 5.5q-16 -33 -44 -120zM375 195q-22 0 -42 -14.5t-31.5 -30.5t-31.5 -47q28 -14 74 -14q34 0 58.5 15.5t24.5 45.5q0 45 -52 45z" />
    <glyph glyph-name="uni0256" unicode="&#x256;" horiz-adv-x="584" 
d="M502 706v-786q1 -52 14.5 -74.5t42.5 -22.5q20 0 34 14.5t21.5 32.5t23 32.5t37.5 14.5q20 0 37 -14.5t17 -42.5q0 -86 -140 -86q-109 0 -168.5 57t-59.5 164v64h-4q-79 -69 -154 -69q-83 0 -127 65.5t-44 166.5q0 131 63 197t164 66q52 0 97 -22h3v114q0 33 -8 42.5
t-36 9.5l-29 -1v43l160 35h56zM359 109v242q-19 75 -90 75q-82 0 -82 -174q0 -179 80 -179q27 0 45 8t47 28z" />
    <glyph glyph-name="uni0257" unicode="&#x257;" horiz-adv-x="594" 
d="M575 12l-179 -17h-35v64h-4q-79 -69 -154 -69q-83 0 -127 65.5t-44 166.5q0 131 63 197t164 66q52 0 97 -22h3v25q0 58 9.5 92.5t43.5 69.5q64 67 178 67q140 0 140 -86q0 -28 -17.5 -42.5t-40.5 -14.5t-35 11t-27 41q-13 26 -23.5 34t-26.5 8q-30 0 -44 -22.5t-14 -74.5
v-457q0 -37 11.5 -49t40.5 -12h21v-41zM359 109v242q-19 75 -90 75q-82 0 -82 -174q0 -179 80 -179q27 0 45 8t47 28z" />
    <glyph glyph-name="uni0258" unicode="&#x258;" horiz-adv-x="515" 
d="M26 146l26 18q54 -67 155 -67q66 0 97.5 37t31.5 123h-304q1 110 61.5 169.5t158.5 59.5q103 0 167 -64t64 -188q0 -117 -65 -181t-177 -64q-66 0 -110.5 24t-59.5 46.5t-38 72.5q-3 4 -4 7.5t-3 6.5zM189 304h148q-3 74 -21 105.5t-59 31.5q-68 0 -68 -137z" />
    <glyph glyph-name="uni0259" unicode="&#x259;" horiz-adv-x="515" 
d="M52 310l-26 18l26.5 47.5t29.5 40.5t41.5 37.5t55 21.5t77.5 10q110 0 168.5 -63t58.5 -182q0 -123 -68 -187t-172 -64q-97 0 -153.5 58.5t-57.5 169.5h304q0 85 -33.5 122.5t-99.5 37.5q-97 0 -151 -67zM337 170h-148q0 -137 68 -137q41 0 59 31.5t21 105.5z" />
    <glyph glyph-name="uni025A" unicode="&#x25a;" horiz-adv-x="711" 
d="M52 310l-26 18l26.5 47.5t29.5 40.5t41.5 37.5t55 21.5t77.5 10q152 0 204 -119l92 54l30 -25q-2 -12 -2 -19q0 -25 10.5 -41.5t31.5 -16.5q51 0 51 45q0 5 -2 17l30 5q5 -17 5 -35q0 -42 -23.5 -71.5t-75.5 -29.5q-42 0 -64.5 31t-22.5 72l-2 1l-45 -26q10 -37 10 -87
q0 -123 -68 -187t-172 -64q-97 0 -153.5 58.5t-57.5 169.5h304q0 85 -33.5 122.5t-99.5 37.5q-97 0 -151 -67zM337 170h-148q0 -137 68 -137q41 0 59 31.5t21 105.5z" />
    <glyph glyph-name="uni025B" unicode="&#x25b;" horiz-adv-x="450" 
d="M243 444q-60 0 -60 -73q0 -55 27 -73.5t83 -18.5h38v-56h-51q-97 0 -97 -75q0 -77 91 -77q72 0 139 48l24 -25q-25 -30 -48 -50t-70.5 -38t-106.5 -18q-77 0 -127 31t-50 99q0 30 12 53.5t33.5 38.5t39 23t41.5 15v8q-56 17 -88 42t-32 74q0 114 206 114q173 0 173 -87
q0 -27 -16 -40t-38 -13q-27 0 -44 15.5t-23.5 33.5t-20 33.5t-35.5 15.5z" />
    <glyph glyph-name="uni025C" unicode="&#x25c;" horiz-adv-x="445" 
d="M195 444q-22 0 -35.5 -15.5t-20 -33.5t-23 -33.5t-43.5 -15.5q-22 0 -38.5 13t-16.5 41q0 86 170 86q211 0 211 -114q0 -48 -31.5 -73.5t-85.5 -42.5v-8q128 -32 128 -126q0 -67 -62.5 -101.5t-145.5 -34.5q-17 0 -33 1.5t-30 6.5l-24 8.5t-22.5 13t-18.5 13.5t-17.5 16
l-15 15.5t-15 17.5t-13.5 16l24 25q67 -48 143 -48q82 0 82 68q0 84 -99 84h-51l-1 56h38q55 0 82 18.5t27 70.5q0 76 -63 76z" />
    <glyph glyph-name="uni025D" unicode="&#x25d;" horiz-adv-x="639" 
d="M195 444q-22 0 -35.5 -15.5t-20 -33.5t-23 -33.5t-43.5 -15.5q-22 0 -38.5 13t-16.5 41q0 86 170 86q209 0 211 -114l81 48l30 -25q-2 -12 -2 -19q0 -25 10.5 -41.5t31.5 -16.5q51 0 51 45q0 5 -2 17l30 5q5 -17 5 -35q0 -42 -23.5 -71.5t-75.5 -29.5q-42 0 -64.5 31
t-22.5 72l-2 1l-63 -36q-26 -38 -101 -61v-8q128 -32 128 -126q0 -67 -62.5 -101.5t-145.5 -34.5q-17 0 -33 1.5t-30 6.5l-24 8.5t-22.5 13t-18.5 13.5t-17.5 16l-15 15.5t-15 17.5t-13.5 16l24 25q67 -48 143 -48q82 0 82 68q0 84 -99 84h-51l-1 56h38q55 0 82 18.5
t27 70.5q0 76 -63 76z" />
    <glyph glyph-name="uni025E" unicode="&#x25e;" horiz-adv-x="602" 
d="M336 486q225 0 225 -114q0 -49 -32 -74t-88 -42v-8q24 -7 41.5 -15t39 -23t33.5 -38.5t12 -53.5q0 -70 -57 -100t-170 -30q-49 0 -92 7.5t-83.5 26t-69 46.5t-46 72t-17.5 99q0 65 26 114t70 77.5t96.5 42t111.5 13.5zM330 444q-76 0 -116 -55.5t-40 -148.5
q0 -91 37 -140.5t106 -49.5q102 0 102 89q0 44 -23.5 64t-73.5 20h-51v56h38q56 0 83 18.5t27 73.5q0 36 -18.5 54.5t-70.5 18.5z" />
    <glyph glyph-name="uni025F" unicode="&#x25f;" horiz-adv-x="332" 
d="M245 482v-209h66v-52h-66v-223q0 -116 -59 -174.5t-153 -58.5q-62 0 -99.5 22.5t-37.5 70.5q0 24 15 39.5t39 15.5q23 0 39.5 -14.5t23.5 -31.5t19 -31.5t27 -14.5q16 0 24.5 7.5t12.5 30t5 45t1 71.5v246h-78v52h78v87q0 32 -10 43t-36 11l-31 -2v42l149 28h71zM173 713
q39 0 60 -21t21 -56q0 -37 -21 -58t-60 -21q-37 0 -59 21.5t-22 56.5q0 36 21.5 57t59.5 21z" />
    <glyph glyph-name="uni0260" unicode="&#x260;" horiz-adv-x="593" 
d="M502 571v-532q0 -263 -260 -263q-32 0 -61.5 4t-58.5 13t-46.5 28t-17.5 45q0 28 16 44.5t41 16.5t44.5 -16.5t30.5 -35.5t27 -35.5t34 -16.5q107 0 107 140v93h-3q-80 -66 -154 -66q-81 0 -125 65t-44 166q0 124 59 194t171 70q47 0 97 -20q0 63 10 107t43 78
q64 67 178 67q140 0 140 -86q0 -28 -17.5 -42.5t-40.5 -14.5t-35 11t-27 41q-13 26 -23.5 34t-26.5 8q-30 0 -43.5 -22.5t-14.5 -74.5zM358 109v255q-32 62 -86 62q-40 0 -62.5 -42t-22.5 -123q0 -91 17 -139.5t64 -48.5q41 0 90 36z" />
    <glyph glyph-name="uni0261" unicode="&#x261;" horiz-adv-x="578" 
d="M431 480h70v-441q0 -263 -259 -263q-32 0 -61.5 4t-58.5 13t-46.5 28t-17.5 45q0 28 16 44.5t41 16.5t44.5 -16.5t30.5 -35.5t27 -35.5t34 -16.5q107 0 107 140v93h-3q-80 -66 -154 -66q-81 0 -125 65t-44 166q0 124 59 194t171 70q64 0 131 -36zM358 109v255
q-32 62 -86 62q-40 0 -62.5 -42t-22.5 -123q0 -91 17 -139.5t64 -48.5q41 0 90 36z" />
    <glyph glyph-name="uni0262" unicode="&#x262;" horiz-adv-x="569" 
d="M549 227v-40q-31 0 -40 -10.5t-9 -45.5v-91q-91 -49 -198 -49q-138 0 -204 57.5t-66 186.5q0 126 75 188t193 62q48 0 87 -13t42 -13q19 0 25 26h34v-178h-42q-14 69 -49.5 99.5t-94.5 30.5q-64 0 -91 -46t-27 -144q0 -112 23.5 -161.5t88.5 -49.5q30 0 45.5 6t36.5 24
v58q0 40 -11 51.5t-53 11.5v40h235z" />
    <glyph glyph-name="uni0263" unicode="&#x263;" horiz-adv-x="522" 
d="M546 473v-40q-30 0 -46.5 -15t-36.5 -57l-135 -290l21 -50q36 -85 36 -143q0 -48 -32.5 -77t-104.5 -29q-53 0 -74.5 25t-21.5 61q0 34 62 165l-142 327q-22 51 -40 67t-49 16v40h279v-40q-57 0 -57 -28q-1 -12 10 -40l63 -158l22 -63h8l24 65l71 160q6 15 6 36
q0 16 -12.5 22t-42.5 6v40h192zM250 -34h-4q-35 -74 -35 -111q0 -18 10.5 -29t29.5 -11q38 0 38 40q0 17 -6.5 37t-19 46z" />
    <glyph glyph-name="uni0264" unicode="&#x264;" horiz-adv-x="493" 
d="M364 478q51 0 86.5 -25t35.5 -65q0 -28 -15 -41t-37 -13q-23 0 -34.5 15t-13 33.5t-11 33.5t-29.5 15q-24 0 -55 -23q54 -53 86.5 -119.5t32.5 -132.5q0 -79 -47.5 -120t-138.5 -41q-72 0 -100 38.5t-28 107.5q0 59 30.5 129.5t79.5 124.5q-34 47 -69 47
q-21 0 -29.5 -16.5t-9 -37t-12 -37t-36.5 -16.5q-20 0 -34 14t-14 41q0 38 35.5 63t92.5 25q72 0 126 -39q51 39 108 39zM156 146q0 -48 18.5 -73t44.5 -25q57 0 57 99q0 49 -16.5 108.5t-30.5 88.5h-3q-70 -105 -70 -198z" />
    <glyph glyph-name="uni0265" unicode="&#x265;" horiz-adv-x="621" 
d="M401 127v238q0 31 -12.5 40t-38.5 9l-26 -2v42l150 28h70v-606q0 -24 12 -32t36 -8l29 3v-41l-158 -31h-62v305h-4q-44 -45 -77.5 -64.5t-77.5 -19.5q-78 0 -118.5 48.5t-40.5 141.5v187q0 31 -12.5 40t-38.5 9l-26 -2v42l150 28h70v-256q0 -28 1 -44.5t5 -37.5t12 -32.5
t23 -19.5t36 -8q46 0 98 43z" />
    <glyph glyph-name="uni0266" unicode="&#x266;" horiz-adv-x="636" 
d="M88 499q0 51 10.5 84t42.5 67q34 36 74 51.5t101 15.5q140 0 140 -86q0 -28 -17.5 -42.5t-40.5 -14.5t-35 11t-27 41q-13 26 -23.5 34t-26.5 8q-29 0 -42 -21.5t-13 -70.5v-175h4q44 45 77.5 64.5t77.5 19.5q78 0 118.5 -48.5t40.5 -141.5v-183q0 -42 13.5 -57t56.5 -15
v-40h-278v40q44 0 54.5 14t10.5 55v138q0 28 -1 44.5t-5 37.5t-12 32.5t-23 19.5t-36 8q-46 0 -98 -43v-238q0 -40 12 -54t60 -14v-40h-285v40q42 0 56 12t14 52v395z" />
    <glyph glyph-name="uni0267" unicode="&#x267;" horiz-adv-x="626" 
d="M231 560v-159h4q44 45 77.5 64.5t77.5 19.5q78 0 118.5 -48.5t40.5 -141.5v-305q0 -111 -60 -168t-152 -57q-62 0 -99.5 22.5t-37.5 70.5q0 24 15 39.5t39 15.5q23 0 39.5 -14.5t23.5 -31.5t19 -31.5t27 -14.5q28 0 35.5 29t7.5 109v288q0 28 -1 44.5t-5 37.5t-12 32.5
t-23 19.5t-36 8q-46 0 -98 -43v-238q0 -40 12 -54t60 -14v-40h-285v40q42 0 56 12t14 52v390q0 54 10 88t43 68q34 36 74 51.5t101 15.5q140 0 140 -86q0 -28 -17.5 -42.5t-40.5 -14.5t-35 11t-27 41q-13 26 -23.5 34t-26.5 8q-30 0 -42.5 -24.5t-12.5 -83.5z" />
    <glyph glyph-name="uni0268" unicode="&#x268;" horiz-adv-x="346" 
d="M321 40v-40h-293v40q48 0 62 13.5t14 56.5v118h-83v58h83v79q0 31 -12.5 40t-38.5 9l-26 -2v42l150 28h67v-196h81v-58h-81v-115q0 -45 14 -59t63 -14zM172 709q39 0 60 -21t21 -56q0 -37 -21 -58t-60 -21q-37 0 -58.5 21t-21.5 57t21 57t59 21z" />
    <glyph glyph-name="uni0269" unicode="&#x269;" horiz-adv-x="348" 
d="M83 136v229q0 31 -12.5 40t-38.5 9l-26 -2v42l150 28h70v-311q0 -54 10.5 -73t39.5 -19q27 0 43 7.5t37 25.5l25 -28q-20 -26 -32 -39t-33.5 -29t-49.5 -23t-66 -7q-61 0 -89 33.5t-28 116.5z" />
    <glyph glyph-name="uni026A" unicode="&#x26a;" horiz-adv-x="331" 
d="M237 358v-245q0 -47 13.5 -60t58.5 -13v-40h-287v40q47 0 59.5 13t12.5 60v245q0 44 -12.5 59t-59.5 15v41h287v-41q-47 0 -59.5 -14.5t-12.5 -59.5z" />
    <glyph glyph-name="uni026B" unicode="&#x26b;" horiz-adv-x="352" 
d="M330 40v-40h-296v40q47 0 60 14t13 58v214q-2 0 -6.5 0.5t-6.5 0.5q-42 0 -56 -42h-39q9 51 37.5 84.5t70.5 35.5v190q0 26 -13 34t-36 8l-31 -2v40l157 31h66v-340h6q45 0 59 43h38q-24 -114 -103 -121v-176q0 -45 14 -58.5t66 -13.5z" />
    <glyph glyph-name="uni026C" unicode="&#x26c;" horiz-adv-x="394" 
d="M363 40v-40h-296v40q47 0 60 14t13 58v109q-63 0 -104.5 33t-41.5 94t34 89.5t84 28.5q16 0 28 -4v133q0 26 -13 34t-36 8l-31 -2v40l157 31h66v-392q47 19 95 66l27 -25q-56 -80 -122 -106v-137q0 -45 14 -58.5t66 -13.5zM74 361q0 -68 66 -77v137h-7q-59 0 -59 -60z
" />
    <glyph glyph-name="uni026D" unicode="&#x26d;" horiz-adv-x="297" 
d="M72 -10v605q0 26 -13 34t-36 8l-31 -2v40l157 31h66v-781q0 -57 8 -80.5t31 -23.5q14 0 24.5 14.5t17 31.5t21 31.5t35.5 14.5t35 -15.5t14 -39.5q0 -48 -35.5 -70.5t-93.5 -22.5q-87 0 -143.5 57t-56.5 168z" />
    <glyph glyph-name="uni026E" unicode="&#x26e;" horiz-adv-x="687" 
d="M315 40v-40h-296v40q47 0 60 14t13 58v483q0 26 -13 34t-36 8l-31 -2v40l157 31h66v-233h419v-46l-174 -238v-4q39 -6 70 -16.5t60.5 -31t46 -56.5t16.5 -85q0 -224 -264 -224q-32 0 -61.5 4t-58.5 13t-46.5 28t-17.5 45q0 28 16 44.5t41 16.5t45 -16.5t30.5 -35.5
t27.5 -35.5t36 -16.5q52 0 80 32.5t28 117.5q0 154 -195 164v50l161 234v5h-260v-310q0 -45 14 -58.5t66 -13.5z" />
    <glyph glyph-name="uni026F" unicode="&#x26f;" horiz-adv-x="940" 
d="M395 183v182q0 31 -12.5 40t-38.5 9l-26 -2v42l150 28h70v-277q0 -67 18.5 -94t55.5 -27q51 0 95 44v237q0 31 -12.5 40t-38.5 9l-26 -2v42l150 28h70v-378q0 -27 9.5 -36t31.5 -9l27 2v-41l-154 -29h-54v82h-5q-30 -29 -46 -43t-46.5 -28t-63.5 -14q-108 0 -140 91h-4
q-89 -91 -168 -91q-72 0 -113 49t-41 146v182q0 31 -12.5 40t-38.5 9l-26 -2v42l150 28h70v-277q0 -68 18 -94.5t55 -26.5q54 0 99 45q-3 25 -3 54z" />
    <glyph glyph-name="uni0270" unicode="&#x270;" horiz-adv-x="927" 
d="M395 183v182q0 31 -12.5 40t-38.5 9l-26 -2v42l150 28h70v-277q0 -67 18.5 -94t55.5 -27q51 0 95 44v237q0 31 -12.5 40t-38.5 9l-26 -2v42l150 28h70v-592q0 -26 9.5 -35t31.5 -9l27 1v-44l-157 -26h-54v296h-2q-30 -29 -46 -43t-46.5 -28t-63.5 -14q-108 0 -140 91h-4
q-89 -91 -168 -91q-72 0 -113 49t-41 146v182q0 31 -12.5 40t-38.5 9l-26 -2v42l150 28h70v-277q0 -68 18 -94.5t55 -26.5q54 0 99 45q-3 25 -3 54z" />
    <glyph glyph-name="uni0271" unicode="&#x271;" horiz-adv-x="938" 
d="M718 -25v293q0 68 -18 94.5t-55 26.5q-54 0 -99 -45q3 -26 3 -54v-178q0 -42 13.5 -57t55.5 -15v-40h-277v40q43 0 54 14t11 58v156q0 67 -18.5 94t-55.5 27q-51 0 -95 -44v-233q0 -44 12.5 -58t59.5 -14v-40h-284v40q47 0 58 13.5t11 58.5v257q0 27 -9.5 36t-31.5 9
l-27 -2v41l154 29h54v-82h5q30 29 46 43t46.5 28t63.5 14q108 0 140 -91h4q89 91 168 91q72 0 113 -49t41 -146v-298q-2 -112 -61 -169.5t-151 -57.5q-62 0 -99.5 22.5t-37.5 70.5q0 24 15 39.5t39 15.5q23 0 39.5 -14.5t23.5 -31.5t19 -31.5t27 -14.5q16 0 24.5 7.5
t12.5 30t5 45t1 71.5z" />
    <glyph glyph-name="uni0272" unicode="&#x272;" horiz-adv-x="644" 
d="M236 345v-357q0 -110 -60.5 -166.5t-152.5 -56.5q-62 0 -99.5 22.5t-37.5 70.5q0 24 15 39.5t39 15.5q23 0 39.5 -14.5t23.5 -31.5t19 -31.5t27 -14.5q29 0 36 30t7 116v402q0 27 -9.5 36t-31.5 9l-27 -2v41l154 29h55v-82h4q44 44 79.5 64.5t82.5 20.5q75 0 116.5 -49
t41.5 -146v-178q0 -42 13.5 -57t55.5 -15v-40h-278v40q43 0 54.5 14t11.5 58v156q0 67 -19 94t-59 27q-54 0 -100 -44z" />
    <glyph glyph-name="uni0273" unicode="&#x273;" horiz-adv-x="641" 
d="M559 -30q0 -32 0.5 -48t1.5 -36.5t3.5 -30t7.5 -19t12.5 -12.5t17.5 -3q15 0 27 14.5t19 31.5t23.5 31.5t39.5 14.5t38.5 -15.5t15.5 -39.5q0 -48 -37.5 -70.5t-99.5 -22.5q-92 0 -152 56.5t-60 166.5v280q0 67 -19 94t-59 27q-54 0 -100 -44v-233q0 -44 12 -58t59 -14
v-40h-284v40q47 0 58 13.5t11 58.5v257q0 27 -9.5 36t-31.5 9l-27 -2v41l154 29h55v-82h4q44 44 79.5 64.5t82.5 20.5q75 0 116.5 -49t41.5 -146v-320z" />
    <glyph glyph-name="uni0274" unicode="&#x274;" horiz-adv-x="592" 
d="M584 473v-40q-43 0 -57 -22.5t-14 -69.5v-346h-103l-270 352h-5v-221q0 -53 14.5 -69.5t55.5 -16.5v-40h-193v40q44 0 58 16.5t14 69.5v272q-17 22 -31.5 28.5t-40.5 6.5v40h196l248 -323h5v191q0 31 -3.5 48.5t-20.5 30.5t-49 13v40h196z" />
    <glyph glyph-name="uni0275" unicode="&#x275;" horiz-adv-x="548" 
d="M277 485q118 0 178.5 -62t60.5 -172q0 -128 -62 -194.5t-180 -66.5q-242 0 -242 250q0 110 62 177.5t183 67.5zM277 39q46 0 67 43.5t23 136.5h-186q6 -180 96 -180zM269 437q-85 0 -88 -165h185q-6 165 -97 165z" />
    <glyph glyph-name="uni0276" unicode="&#x276;" horiz-adv-x="795" 
d="M763 154l-18 -154h-390q-6 0 -37 -3.5t-44 -3.5q-118 0 -180 62t-62 181q0 113 67 179t184 66q14 0 46.5 -4t47.5 -4h361l4 -135h-41q-9 51 -27.5 68t-76.5 17h-83v-159h46q54 0 66 10.5t12 52.5h38v-177h-38q0 46 -12 57.5t-66 11.5h-46v-171h73q64 0 91.5 22t45.5 84
h39zM301 38q70 0 70 75v242q0 47 -18.5 63t-53.5 16q-117 0 -117 -194q0 -103 28.5 -152.5t90.5 -49.5z" />
    <glyph glyph-name="uni0277" unicode="&#x277;" horiz-adv-x="706" 
d="M676 200q0 -92 -53.5 -148t-140.5 -56q-86 0 -127 82h-5q-41 -82 -129 -82q-86 0 -138.5 55.5t-52.5 146.5q0 73 26.5 129.5t72.5 90.5t103 51t122 17q62 0 118 -17t102.5 -50t74 -89.5t27.5 -129.5zM523 218q0 116 -47.5 169.5t-121.5 53.5q-76 0 -123.5 -52t-47.5 -168
q0 -69 15.5 -119t52.5 -50q43 0 70 69q0 2 -9 28.5t-18 62t-9 59.5q0 20 20.5 31.5t47.5 11.5q26 0 46.5 -11.5t20.5 -31.5q0 -24 -8 -59t-16 -61.5t-8 -29.5q22 -69 66 -69q37 0 53 49.5t16 116.5z" />
    <glyph glyph-name="uni0278" unicode="&#x278;" horiz-adv-x="767" 
d="M540 -180v-40h-296v40q47 0 60 14t13 58v101q-285 22 -285 247q0 97 73 162t212 79v114q0 26 -13 34t-36 8l-31 -2v40l157 31h66v-224q134 -13 205 -73.5t71 -157.5q0 -112 -71.5 -177.5t-204.5 -79.5v-102q0 -45 14 -58.5t66 -13.5zM184 250q0 -172 133 -203v385
q-133 -25 -133 -182zM584 243q0 147 -124 183v-380q65 15 94.5 63t29.5 134z" />
    <glyph glyph-name="uni0279" unicode="&#x279;" horiz-adv-x="449" 
d="M214 -9v104h-4l-27 -37t-24.5 -33t-20.5 -20.5t-27.5 -16t-31.5 -3.5q-77 0 -77 82q0 40 18 60.5t43 20.5t52 -21t31 -21q26 0 66 45v206q0 47 -20.5 61.5t-76.5 14.5v40h314v-40q-48 0 -61 -13t-13 -56v-245q0 -29 8.5 -42.5t33.5 -13.5l31 2v-43l-157 -31h-57z" />
    <glyph glyph-name="uni027A" unicode="&#x27a;" horiz-adv-x="445" 
d="M214 6v104h-4l-27 -37t-24.5 -33t-20.5 -20.5t-27.5 -16t-31.5 -3.5q-77 0 -77 82q0 40 18 60.5t43 20.5t52 -21t31 -21q26 0 66 45v411q0 33 -8 42.5t-36 9.5l-29 -1v43l160 35h56v-572q0 -29 8.5 -42.5t33.5 -13.5l31 2v-43l-157 -31h-57z" />
    <glyph glyph-name="uni027B" unicode="&#x27b;" horiz-adv-x="442" 
d="M214 -12v107h-4l-27 -37t-24.5 -33t-20.5 -20.5t-27.5 -16t-31.5 -3.5q-77 0 -77 82q0 40 18 60.5t43 20.5t52 -21t31 -21q26 0 66 45v206q0 47 -20.5 61.5t-76.5 14.5v40h314v-40q-48 0 -61 -13t-13 -56v-394q0 -45 1 -68.5t5.5 -44.5t13.5 -28.5t25 -7.5q15 0 27 14.5
t19 31.5t23.5 31.5t39.5 14.5t38.5 -15.5t15.5 -39.5q0 -48 -37.5 -70.5t-99.5 -22.5q-92 0 -152 56.5t-60 166.5z" />
    <glyph glyph-name="uni027C" unicode="&#x27c;" horiz-adv-x="447" 
d="M233 482v-104h4l27 37t24.5 33t20.5 20.5t27.5 16t31.5 3.5q77 0 77 -82q0 -40 -18 -60.5t-43 -20.5q-26 0 -52 21t-31 21q-26 0 -66 -45v-426q0 -47 20.5 -61.5t76.5 -14.5v-40h-314v40q48 0 61 13t13 56v465q0 29 -8.5 42.5t-33.5 13.5l-31 -2v43l157 31h57z" />
    <glyph glyph-name="uni027D" unicode="&#x27d;" horiz-adv-x="447" 
d="M92 -12v366q0 29 -8.5 42.5t-33.5 13.5l-31 -2v43l157 31h57v-104h4l27 37t24.5 33t20.5 20.5t27.5 16t31.5 3.5q77 0 77 -82q0 -40 -18 -60.5t-43 -20.5q-26 0 -52 21t-31 21q-26 0 -66 -45v-352q0 -32 0.5 -48t1.5 -36.5t3.5 -30t7.5 -19t12.5 -12.5t17.5 -3
q15 0 27 14.5t19 31.5t23.5 31.5t39.5 14.5t38.5 -15.5t15.5 -39.5q0 -48 -37.5 -70.5t-99.5 -22.5q-92 0 -152 56.5t-60 166.5z" />
    <glyph glyph-name="uni027E" unicode="&#x27e;" horiz-adv-x="455" 
d="M85 271q0 98 62.5 156t165.5 58q140 0 140 -86q0 -28 -17.5 -42.5t-40.5 -14.5t-35 11t-27 41q-13 26 -23.5 34t-26.5 8q-55 0 -55 -84v-236q0 -47 20.5 -61.5t76.5 -14.5v-40h-314v40q48 0 61 13t13 56v162z" />
    <glyph glyph-name="uni027F" unicode="&#x27f;" horiz-adv-x="455" 
d="M370 271v-162q0 -43 13 -56t61 -13v-40h-314v40q56 0 76.5 14.5t20.5 61.5v236q0 84 -55 84q-16 0 -26.5 -8t-23.5 -34q-15 -30 -27 -41t-35 -11t-40.5 14.5t-17.5 42.5q0 86 140 86q103 0 165.5 -58t62.5 -156z" />
    <glyph glyph-name="uni0280" unicode="&#x280;" horiz-adv-x="579" 
d="M512 352q0 -55 -32.5 -83t-87.5 -41v-3q18 -11 41.5 -39.5t83.5 -108.5q16 -23 32.5 -30t44.5 -7v-40h-191l-106 179q-15 25 -46 25h-14v-98q0 -44 13 -55t62 -11v-40h-290v40q44 0 58 12t14 55v269q0 33 -14.5 44.5t-57.5 11.5v41h278q44 0 80.5 -6.5t67 -20t47.5 -37.5
t17 -57zM237 426v-177l24 -1q54 3 78 23t24 76q0 81 -87 81q-27 0 -39 -2z" />
    <glyph glyph-name="uni0281" unicode="&#x281;" horiz-adv-x="579" 
d="M512 121q0 -33 -17 -57t-47.5 -37.5t-67 -20t-80.5 -6.5h-278v41q43 0 57.5 11.5t14.5 44.5v269q0 43 -14 55t-58 12v40h290v-40q-49 0 -62 -11t-13 -55v-98h14q31 0 46 25l106 179h191v-40q-28 0 -44.5 -7t-32.5 -30q-60 -80 -83.5 -108.5t-41.5 -39.5v-3
q55 -13 87.5 -41t32.5 -83zM237 224v-177q12 -2 39 -2q87 0 87 81q0 56 -24 76t-78 23z" />
    <glyph glyph-name="uni0282" unicode="&#x282;" horiz-adv-x="440" 
d="M36 177h44q15 -75 44 -107.5t81 -32.5q79 0 79 58q0 25 -21.5 41.5t-92.5 51.5q-47 24 -70.5 39t-43 45.5t-19.5 71.5q0 68 44.5 104.5t125.5 36.5q61 0 114 -34h4l15 25h41l3 -163h-44q-19 69 -47.5 97t-70.5 28q-68 0 -68 -53q0 -26 19.5 -40.5t75.5 -41.5q10 -4 15 -7
q40 -19 60 -30.5t44 -31t34 -44.5t10 -58q0 -77 -55 -110.5t-139 -33.5q-61 0 -120 28h-3v-67q0 -128 63 -128q16 0 26.5 11.5t15 24.5t17 24.5t31.5 11.5q20 0 33 -12t13 -34q0 -36 -30.5 -53.5t-78.5 -17.5q-84 0 -115 51.5t-31 142.5v65z" />
    <glyph glyph-name="uni0283" unicode="&#x283;" horiz-adv-x="307" 
d="M82 473q0 110 57 177t168 67q136 0 136 -86q0 -28 -17.5 -42.5t-40.5 -14.5t-35.5 11t-26.5 41q-13 26 -22.5 34t-24.5 8q-29 0 -40 -24.5t-11 -83.5v-547q0 -110 -57 -177t-168 -67q-136 0 -136 86q0 28 17.5 42.5t40.5 14.5t35.5 -11t26.5 -41q13 -26 22.5 -34t24.5 -8
q29 0 40 24.5t11 83.5v547z" />
    <glyph glyph-name="uni0284" unicode="&#x284;" horiz-adv-x="337" 
d="M-6 0v58h103v415q0 110 57 177t168 67q136 0 136 -86q0 -28 -17.5 -42.5t-40.5 -14.5t-35.5 11t-26.5 41q-13 26 -22.5 34t-24.5 8q-29 0 -40 -24.5t-11 -83.5v-502h107v-58h-107q-4 -105 -61 -168t-164 -63q-136 0 -136 86q0 28 17.5 42.5t40.5 14.5t35.5 -11t26.5 -41
q13 -26 22.5 -34t24.5 -8q29 0 40 24.5t11 83.5v74h-103z" />
    <glyph glyph-name="uni0285" unicode="&#x285;" horiz-adv-x="445" 
d="M363 241v-315q0 -59 11 -83.5t40 -24.5q15 0 24.5 8t22.5 34q14 30 26.5 41t35.5 11t40.5 -14.5t17.5 -42.5q0 -86 -136 -86q-111 0 -168 67t-57 177v315q0 59 -11 83.5t-40 24.5q-15 0 -24.5 -8t-22.5 -34q-14 -30 -26.5 -41t-35.5 -11t-40.5 14.5t-17.5 42.5
q0 86 136 86q111 0 168 -67t57 -177z" />
    <glyph glyph-name="uni0286" unicode="&#x286;" horiz-adv-x="307" 
d="M225 -21q0 -22 -1 -28q61 -25 97 -61l-27 -34q-33 29 -73 46q-18 -129 -200 -129q-57 0 -86.5 25.5t-29.5 71.5q0 59 42 87t105 28q16 0 30 -2v490q0 110 57 177t168 67q136 0 136 -86q0 -28 -17.5 -42.5t-40.5 -14.5t-35.5 11t-26.5 41q-13 26 -22.5 34t-24.5 8
q-29 0 -40 -24.5t-11 -83.5v-581zM82 -64q-18 3 -34 3q-82 0 -82 -62q0 -50 51 -50q34 0 49.5 22.5t15.5 86.5z" />
    <glyph glyph-name="uni0287" unicode="&#x287;" horiz-adv-x="382" 
d="M25 359l-25 28q20 26 32 39t33.5 29t49.5 23t66 7q61 0 89 -33.5t28 -116.5v-276h63v-42q-99 -60 -147 -161h-60l1 142h-125v61h125v241q0 54 -10.5 73t-39.5 19q-27 0 -43 -7.5t-37 -25.5z" />
    <glyph glyph-name="uni0288" unicode="&#x288;" horiz-adv-x="376" 
d="M88 18v394h-63v42q99 60 147 161h60l-1 -142h125v-61h-125v-480q0 -59 12.5 -83.5t42.5 -24.5q18 0 31.5 14.5t21.5 32.5t24 32.5t38 14.5q21 0 38 -14.5t17 -42.5q0 -86 -140 -86q-61 0 -101 15.5t-74 51.5q-51 54 -53 176z" />
    <glyph glyph-name="uni0289" unicode="&#x289;" horiz-adv-x="648" 
d="M620 60v-37l-173 -29h-39v87h-4q-50 -53 -84.5 -72t-83.5 -19q-77 0 -112.5 39.5t-35.5 136.5v62h-70v58h70v73q0 44 -13 54t-57 11v41l166 13h47v-192h172v77q0 41 -16 51t-69 10v41l187 13h41v-192h74v-58h-74v-93q0 -47 13.5 -61t54.5 -14h6zM301 88q30 0 51 10t51 35
v95h-172v-33q0 -66 16.5 -86.5t53.5 -20.5z" />
    <glyph glyph-name="uni028A" unicode="&#x28a;" horiz-adv-x="561" 
d="M281 43q88 0 88 164q0 88 -9 136t-46 105l6 25h184v-41q-101 -2 -101 -27q0 -11 16 -24q51 -40 76 -83t25 -105q0 -99 -64.5 -151t-175.5 -52t-175.5 51.5t-64.5 146.5q0 64 25.5 107.5t77.5 84.5q15 11 15 24q0 26 -99 28v41h182l6 -25q-37 -59 -47 -107t-10 -134
q0 -164 91 -164z" />
    <glyph glyph-name="uni028B" unicode="&#x28b;" horiz-adv-x="567" 
d="M261 -10q-97 0 -137.5 42.5t-40.5 133.5v193q0 44 -13 54t-57 11v41l166 13h47v-283q0 -59 21 -85.5t71 -26.5q78 0 109.5 39.5t31.5 112.5q0 37 -16 68t-35.5 48.5t-35.5 39t-16 43.5q0 21 14 36.5t43 15.5q108 0 108 -209q0 -132 -67.5 -209.5t-192.5 -77.5z" />
    <glyph glyph-name="uni028C" unicode="&#x28c;" horiz-adv-x="553" 
d="M-16 0v40q30 0 47 15t36 57l168 368h86l151 -357q20 -50 38.5 -66.5t50.5 -16.5v-40h-279v40q57 0 57 28q0 18 -10 40l-72 175l-22 63h-8l-24 -65l-76 -177q-6 -15 -6 -36q0 -16 12.5 -22t42.5 -6v-40h-192z" />
    <glyph glyph-name="uni028D" unicode="&#x28d;" horiz-adv-x="869" 
d="M-10 0v40q28 0 44.5 13t30.5 47l162 380h96l98 -268h4l120 268h93l159 -378q16 -40 30 -51t47 -11v-40h-268v40q28 0 38 4.5t10 15.5q0 14 -10 41l-79 188l-18 56h-8l-21 -57l-70 -155l11 -31q15 -42 26.5 -52t44.5 -10v-40h-248v40q47 0 47 20q0 14 -10 41l-71 188
l-18 56h-7l-19 -57l-72 -194q-6 -16 -6 -30q0 -24 65 -24v-40h-201z" />
    <glyph glyph-name="uni028E" unicode="&#x28e;" horiz-adv-x="544" 
d="M-10 0v39q28 0 41.5 11.5t26.5 40.5l178 398q46 105 96.5 152t115.5 47q83 0 83 -65q0 -24 -13.5 -37.5t-35.5 -13.5q-18 0 -45 12t-44 12q-32 0 -59.5 -41t-27.5 -76q0 -27 49 -122l143 -283q18 -35 65 -35v-39h-270v40q31 0 43 6t12 21q0 12 -15 42l-90 181l-19 51h-5
l-91 -259q-3 -12 -3 -19q0 -24 50 -24v-39h-185z" />
    <glyph glyph-name="uni028F" unicode="&#x28f;" horiz-adv-x="522" 
d="M534 473v-36q-32 -1 -48 -12t-39 -50l-109 -196v-71q0 -45 13.5 -56.5t59.5 -11.5v-40h-287v40q48 0 59.5 10.5t11.5 57.5v62l-96 170q-36 64 -56 80.5t-48 16.5v36h261v-36q-28 0 -36.5 -3.5t-8.5 -12.5q0 -12 12 -31l63 -109l21 -49h5l88 165q7 9 7 22q0 18 -41 18v36
h168z" />
    <glyph glyph-name="uni0290" unicode="&#x290;" horiz-adv-x="496" 
d="M458 169l-10 -169v-51q0 -128 67 -128q13 0 22.5 11.5t14.5 24.5t17.5 24.5t32.5 11.5q19 0 32 -12t13 -34q0 -36 -30.5 -53.5t-82.5 -17.5q-42 0 -71.5 15.5t-44 44.5t-20.5 60.5t-6 73.5v30h-358v44l260 374v4h-90q-90 0 -106 -108h-45l5 159h397v-47l-260 -372v-5h85
q60 0 90 24.5t41 95.5h47z" />
    <glyph glyph-name="uni0291" unicode="&#x291;" horiz-adv-x="495" 
d="M195 54v-5h72q16 27 26.5 42.5t28.5 35.5t40 29.5t48 9.5q30 0 54 -17t24 -56q0 -31 -14.5 -50.5t-44.5 -27.5t-57.5 -11t-70.5 -4h-9q-45 -74 -84 -154l-45 18q25 48 78 135v1h-207v44l260 374v4h-90q-90 0 -106 -108h-45l5 159h397v-47zM315 47q31 0 48.5 0.5t37 4
t28 13t8.5 24.5q0 30 -30 30q-33 0 -52.5 -18t-39.5 -54z" />
    <glyph glyph-name="uni0292" unicode="&#x292;" horiz-adv-x="474" 
d="M121 183l161 234v5h-115q-52 0 -72 -24.5t-27 -80.5h-47l5 156h415v-46l-174 -238v-4q39 -6 70 -16.5t60.5 -31t46 -56.5t16.5 -85q0 -224 -264 -224q-32 0 -61.5 4t-58.5 13t-46.5 28t-17.5 45q0 28 16 44.5t41 16.5t45 -16.5t30.5 -35.5t27.5 -35.5t36 -16.5
q52 0 80 32.5t28 117.5q0 154 -195 164v50z" />
    <glyph glyph-name="uni0293" unicode="&#x293;" horiz-adv-x="475" 
d="M78 -53q81 0 151 -121q88 30 88 143q0 154 -195 164v50l161 234v5h-115q-52 0 -72 -24.5t-27 -80.5h-42v156h415v-46l-174 -238v-4q39 -6 70 -16.5t60.5 -31t46 -56.5t16.5 -85q0 -86 -54 -142t-153 -76q19 -39 55 -131l-47 -21q-32 89 -59 145q-27 -3 -57 -3
q-66 0 -108.5 26t-42.5 76q0 39 27 58t56 19zM142 -187q14 0 38 2q-51 87 -99 87q-15 0 -25 -9.5t-10 -23.5q0 -25 28 -40.5t68 -15.5z" />
    <glyph glyph-name="uni0294" unicode="&#x294;" horiz-adv-x="427" 
d="M235 309v-168q0 -67 13.5 -83.5t73.5 -16.5v-41h-305v41q53 0 64 16.5t11 83.5v166l12 24q28 4 50.5 10t48 20t42.5 34t28 54t11 78q0 75 -20 109.5t-72 34.5q-32 0 -47.5 -21t-17.5 -46t-17 -46t-47 -21q-27 0 -42.5 17.5t-15.5 48.5q0 51 56 80.5t141 29.5
q106 0 165.5 -49.5t59.5 -140.5q0 -165 -192 -214z" />
    <glyph glyph-name="uni0295" unicode="&#x295;" horiz-adv-x="437" 
d="M192 141v168q-192 49 -192 214q0 91 59.5 140.5t165.5 49.5q85 0 141 -29.5t56 -80.5q0 -31 -15.5 -48.5t-42.5 -17.5q-32 0 -47 21t-17 46t-17.5 46t-47.5 21q-52 0 -72 -34.5t-20 -109.5q0 -44 11 -78t28 -54t42.5 -34t48 -20t50.5 -10l12 -24v-166q0 -67 11 -83.5
t64 -16.5v-41h-305v41q60 0 73.5 16.5t13.5 83.5z" />
    <glyph glyph-name="uni0296" unicode="&#x296;" horiz-adv-x="480" 
d="M256 404q192 -49 192 -214q0 -91 -59.5 -140.5t-165.5 -49.5q-85 0 -141 29.5t-56 80.5q0 31 15.5 48.5t42.5 17.5q32 0 47 -21t17 -46t17.5 -46t47.5 -21q52 0 72 34.5t20 109.5q0 44 -11 78t-28 54t-42.5 34t-48 20t-50.5 10l-12 24v171q0 33 -8 42.5t-36 9.5l-29 -1
v43l160 35h56v-302z" />
    <glyph glyph-name="uni0297" unicode="&#x297;" horiz-adv-x="487" 
d="M448 -7l26 -16q-17 -35 -26 -52t-28.5 -43t-39.5 -38t-53 -21.5t-74 -9.5q-103 0 -161.5 84t-58.5 244q0 102 25 177.5t83 121.5t144 46q80 0 129 -31.5t49 -80.5q0 -30 -21 -46.5t-53 -16.5q-29 0 -45.5 20t-22 43.5t-20.5 43.5t-42 20q-48 0 -65.5 -58.5t-17.5 -188.5
q0 -140 27 -205.5t101 -65.5q50 0 81 16.5t63 56.5z" />
    <glyph glyph-name="uni0298" unicode="&#x298;" horiz-adv-x="748" 
d="M445 338q0 -29 -20 -49.5t-49 -20.5t-49.5 20.5t-20.5 49.5t20.5 49t49.5 20t49 -20t20 -49zM715 338q0 -152 -94 -254t-250 -102q-142 0 -240 99.5t-98 257.5q0 159 96.5 257.5t248.5 98.5q151 0 244 -101.5t93 -255.5zM587 341q0 137 -59 227t-157 90
q-91 0 -150.5 -84.5t-59.5 -232.5q0 -138 56.5 -228t156.5 -90q95 0 154 90.5t59 227.5z" />
    <glyph glyph-name="uni0299" unicode="&#x299;" horiz-adv-x="560" 
d="M385 255v-6q59 -5 101 -33.5t42 -87.5q0 -62 -54.5 -95t-148.5 -33h-300v40q44 0 56.5 11.5t12.5 54.5v264q0 40 -12.5 50.5t-56.5 10.5v42h285q194 0 194 -108q0 -44 -32 -69t-87 -41zM237 270h35q52 0 68.5 17t16.5 64q0 44 -17.5 60.5t-69.5 16.5q-12 0 -33 -3v-155z
M237 224v-177q28 -2 40 -2q52 0 75 16t23 70q0 57 -24.5 75t-71.5 18h-42z" />
    <glyph glyph-name="uni029A" unicode="&#x29a;" horiz-adv-x="602" 
d="M266 486q59 0 111.5 -13.5t96.5 -42t70 -77.5t26 -114q0 -55 -17.5 -99t-46 -72t-69 -46.5t-83.5 -26t-92 -7.5q-113 0 -170 30t-57 100q0 30 12 53.5t33.5 38.5t39 23t41.5 15v8q-56 17 -88 42t-32 74q0 114 225 114zM272 444q-52 0 -70.5 -18.5t-18.5 -54.5
q0 -55 27 -73.5t83 -18.5h38v-56h-51q-50 0 -73.5 -20t-23.5 -64q0 -89 102 -89q69 0 106 49.5t37 140.5q0 93 -40 148.5t-116 55.5z" />
    <glyph glyph-name="uni029B" unicode="&#x29b;" horiz-adv-x="569" 
d="M555 670q-67 0 -67 -131v-232h-42q-14 69 -49.5 99.5t-94.5 30.5q-64 0 -91 -46t-27 -144q0 -112 23.5 -161.5t88.5 -49.5q30 0 45.5 6t36.5 24v58q0 40 -11 51.5t-53 11.5v40h235v-40q-31 0 -40 -10.5t-9 -45.5v-91q-91 -49 -198 -49q-138 0 -204 57.5t-66 186.5
q0 126 75 188t193 62q35 0 60 -6.5t38 -12.5t17 -6q7 0 13 5t6 14q0 47 2.5 78.5t11 63.5t23.5 50t40.5 29.5t62.5 11.5q52 0 82.5 -17.5t30.5 -53.5q0 -22 -13 -34t-32 -12q-21 0 -34 11.5t-17.5 26t-13.5 26t-22 11.5z" />
    <glyph glyph-name="uni029C" unicode="&#x29c;" horiz-adv-x="679" 
d="M237 358v-94h204v94q0 45 -11.5 59.5t-56.5 14.5v41h284v-41q-47 0 -59.5 -14.5t-12.5 -59.5v-245q0 -47 13 -60t59 -13v-40h-284v40q47 0 57.5 12.5t10.5 60.5v102h-204v-102q0 -48 10.5 -60.5t54.5 -12.5v-40h-280v40q47 0 59.5 13t12.5 60v245q0 44 -12.5 59t-59.5 15
v41h283v-41q-46 0 -57 -14t-11 -60z" />
    <glyph glyph-name="uni029D" unicode="&#x29d;" horiz-adv-x="312" 
d="M92 -24v384q0 32 -10 43t-36 11l-31 -2v42l149 28h71v-491q0 -28 -1 -40q60 -25 93 -60l-27 -32q-36 31 -69 44q-7 -38 -28.5 -65t-51.5 -40.5t-59.5 -19t-61.5 -5.5q-46 0 -77 24.5t-31 70.5q0 53 38.5 81.5t97.5 28.5q20 0 34 -2zM163 713q39 0 60 -21t21 -56
q0 -37 -21 -58t-60 -21q-37 0 -59 21.5t-22 56.5q0 36 21.5 57t59.5 21zM92 -71q-18 3 -33 3q-41 0 -62 -13.5t-21 -47.5q0 -47 54 -47q39 0 50.5 24t11.5 81z" />
    <glyph glyph-name="uni029E" unicode="&#x29e;" horiz-adv-x="613" 
d="M-2 473h262v-40q-21 0 -27.5 -3.5t-6.5 -11.5q0 -11 11 -23l132 -151h9v126q0 39 -14 51t-58 12v40h289v-40q-47 0 -60.5 -13t-13.5 -56v-488q0 -40 44 -40l36 2v-40l-156 -31h-67v440h-8l-106 -116q-14 -16 -14 -29q0 -12 10 -17t40 -5v-40h-260v40q39 0 77.5 21
t118.5 86l39 32l-202 215q-24 26 -38 32.5t-37 6.5v40z" />
    <glyph glyph-name="uni029F" unicode="&#x29f;" horiz-adv-x="506" 
d="M491 178l-21 -178h-450v40q46 0 59 12.5t13 54.5v256q0 41 -13.5 55t-58.5 14v41h293v-41q-47 0 -62.5 -14t-15.5 -56v-272q0 -26 10.5 -34t43.5 -8h38q87 0 120 130h44z" />
    <glyph glyph-name="uni02A0" unicode="&#x2a0;" horiz-adv-x="593" 
d="M565 -220h-301v41q60 0 77 15.5t17 62.5v157h-4q-80 -66 -153 -66q-81 0 -125 65t-44 166q0 124 59 194t171 70q43 0 90 -19h6q0 75 10 112t43 72q34 36 74 51.5t101 15.5q140 0 140 -86q0 -28 -17.5 -42.5t-40.5 -14.5t-35 11t-27 41q-13 26 -23.5 34t-26.5 8
q-29 0 -41.5 -22.5t-13.5 -75.5v-680q0 -40 12 -54.5t52 -14.5v-41zM358 109v255q-32 62 -86 62q-40 0 -62.5 -42t-22.5 -123q0 -91 17 -139.5t64 -48.5q41 0 90 36z" />
    <glyph glyph-name="uni02A1" unicode="&#x2a1;" horiz-adv-x="437" 
d="M240 309v-82h132v-58h-132v-28q0 -67 13.5 -83.5t73.5 -16.5v-41h-305v41q53 0 64 16.5t11 83.5v28h-75v58h75v80l12 24q28 4 50.5 10t48 20t42.5 34t28 54t11 78q0 75 -20 109.5t-72 34.5q-32 0 -47.5 -21t-17.5 -46t-17 -46t-47 -21q-27 0 -42.5 17.5t-15.5 48.5
q0 51 56 80.5t141 29.5q106 0 165.5 -49.5t59.5 -140.5q0 -165 -192 -214z" />
    <glyph glyph-name="uni02A2" unicode="&#x2a2;" horiz-adv-x="437" 
d="M197 227v82q-192 49 -192 214q0 91 59.5 140.5t165.5 49.5q85 0 141 -29.5t56 -80.5q0 -31 -15.5 -48.5t-42.5 -17.5q-32 0 -47 21t-17 46t-17.5 46t-47.5 21q-52 0 -72 -34.5t-20 -109.5q0 -44 11 -78t28 -54t42.5 -34t48 -20t50.5 -10l12 -24v-80h75v-58h-75v-28
q0 -67 11 -83.5t64 -16.5v-41h-305v41q60 0 73.5 16.5t13.5 83.5v28h-132v58h132z" />
    <glyph glyph-name="uni02A3" unicode="&#x2a3;" horiz-adv-x="926" 
d="M889 169l-10 -169h-431l-55 -5h-35v64h-4q-79 -69 -154 -69q-83 0 -127 65.5t-44 166.5q0 131 63 197t164 66q52 0 97 -22h3v114q0 33 -8 42.5t-36 9.5l-29 -1v43l160 35h56v-233h387v-47l-260 -372v-5h85q60 0 90 24.5t41 95.5h47zM356 109v242q-19 75 -90 75
q-82 0 -82 -174q0 -179 80 -179q27 0 45 8t47 28zM499 94h6l220 324v4h-226v-328z" />
    <glyph glyph-name="uni02A4" unicode="&#x2a4;" horiz-adv-x="942" 
d="M589 183l161 234v5h-248v-308q0 -37 11.5 -49t40.5 -12h21v-41l-179 -17h-35v64h-4q-79 -69 -154 -69q-83 0 -127 65.5t-44 166.5q0 131 63 197t164 66q52 0 97 -22h3v114q0 33 -8 42.5t-36 9.5l-29 -1v43l160 35h56v-233h407v-46l-174 -238v-4q39 -6 70 -16.5t60.5 -31
t46 -56.5t16.5 -85q0 -224 -264 -224q-32 0 -61.5 4t-58.5 13t-46.5 28t-17.5 45q0 28 16 44.5t41 16.5t45 -16.5t30.5 -35.5t27.5 -35.5t36 -16.5q52 0 80 32.5t28 117.5q0 154 -195 164v50zM359 109v242q-19 75 -90 75q-82 0 -82 -174q0 -179 80 -179q27 0 45 8t47 28z
" />
    <glyph glyph-name="uni02A5" unicode="&#x2a5;" horiz-adv-x="927" 
d="M502 706v-233h387v-47l-260 -372v-5h72q16 27 26.5 42.5t28.5 35.5t40 29.5t48 9.5q30 0 54 -17t24 -56q0 -31 -14.5 -50.5t-44.5 -27.5t-57.5 -11t-70.5 -4h-9q-45 -74 -84 -154l-45 18q25 48 78 135v1h-227l-52 -5h-35v64h-4q-79 -69 -154 -69q-83 0 -127 65.5
t-44 166.5q0 131 63 197t164 66q52 0 97 -22h3v114q0 33 -8 42.5t-36 9.5l-29 -1v43l160 35h56zM359 109v242q-19 75 -90 75q-82 0 -82 -174q0 -179 80 -179q27 0 45 8t47 28zM502 94h6l220 324v4h-226v-328zM752 47q31 0 48.5 0.5t37 4t28 13t8.5 24.5q0 30 -30 30
q-33 0 -52.5 -18t-39.5 -54z" />
    <glyph glyph-name="uni02A6" unicode="&#x2a6;" horiz-adv-x="775" 
d="M227 412v-234q0 -78 43.5 -108t143.5 -30q106 0 154 11.5t48 45.5q0 24 -21 40.5t-93 50.5q-70 33 -101.5 68t-31.5 97q0 63 45 97.5t126 34.5q59 0 115 -34h2l15 25h44v-163h-44q-19 69 -47.5 97t-71.5 28q-65 0 -65 -49q0 -28 21 -45t76 -43q7 -3 11 -5
q41 -20 61.5 -31.5t45 -32t34.5 -46.5t10 -61q0 -76 -80 -108t-253 -32q-147 0 -215 16.5t-91.5 55t-23.5 123.5v232h-63v42q99 60 147 161h59v-142h115v-61h-115z" />
    <glyph glyph-name="uni02A7" unicode="&#x2a7;" horiz-adv-x="647" 
d="M357 112l25 -28q-20 -26 -32 -39t-33.5 -29t-49.5 -23t-66 -7q-61 0 -89 33.5t-28 116.5v276h-63v42q99 60 147 161h60l-1 -142h195q0 110 57 177t168 67q136 0 136 -86q0 -28 -17.5 -42.5t-40.5 -14.5t-35.5 11t-26.5 41q-13 26 -22.5 34t-24.5 8q-29 0 -40 -24.5
t-11 -83.5v-547q0 -110 -57 -177t-168 -67q-136 0 -136 86q0 28 17.5 42.5t40.5 14.5t35.5 -11t26.5 -41q13 -26 22.5 -34t24.5 -8q29 0 40 24.5t11 83.5v486h-195v-241q0 -54 10.5 -73t39.5 -19q27 0 43 7.5t37 25.5z" />
    <glyph glyph-name="uni02A8" unicode="&#x2a8;" horiz-adv-x="806" 
d="M507 152q88 44 168 44q43 0 75.5 -22t32.5 -63q0 -61 -58 -92t-159 -31q-98 0 -161 57q-98 -59 -194 -59q-127 0 -127 142v284h-63v42q99 60 147 161h59v-142h125v-61h-125v-268q0 -75 60 -75q26 0 90 22q-35 70 -35 140q0 115 65.5 185t193.5 70q80 0 129 -31.5
t49 -80.5q0 -30 -21 -46.5t-53 -16.5q-29 0 -45.5 20t-22 43.5t-20.5 43.5t-42 20q-48 0 -69 -39.5t-21 -123.5q0 -73 22 -123zM726 108q0 37 -60 37q-31 0 -72.5 -10.5t-64.5 -24.5q40 -51 104 -51q43 0 68 13.5t25 35.5z" />
    <glyph glyph-name="uni02A9" unicode="&#x2a9;" horiz-adv-x="999" 
d="M912 290v-178q0 -42 13.5 -57t55.5 -15v-40h-278v40q43 0 54.5 14t11.5 58v156q0 68 -19.5 94.5t-61.5 26.5q-45 0 -97 -43v-234q0 -44 12 -58t59 -14v-40h-284v40q47 0 58 13.5t11 58.5v255q0 27 -9.5 36t-31.5 9h-169v-278q0 -60 19 -77t84 -17v-40h-334v40
q57 0 72.5 16t15.5 78v278h-81v61h81q0 65 10 102t46 75q34 36 72.5 51.5t96.5 15.5q136 0 136 -86q0 -28 -17.5 -42.5t-40.5 -14.5t-35.5 11t-26.5 41q-13 26 -22.5 34t-24.5 8q-29 0 -40 -24.5t-11 -83.5v-87h248l48 9h55v-82h4q44 43 78.5 64t75.5 21q80 0 123 -49
t43 -146z" />
    <glyph glyph-name="uni02AA" unicode="&#x2aa;" horiz-adv-x="676" 
d="M215 706v-536q0 -75 29 -104t118 -29q155 0 155 69q0 21 -19 34.5t-88 47.5q-33 16 -50 26.5t-40 30t-33 45t-10 58.5q0 67 44 102t125 35q62 0 115 -34h4l15 25h41l3 -163h-44q-20 71 -49 98t-71 27q-64 0 -64 -49q0 -20 13.5 -36t29.5 -25t50 -25q10 -5 15 -7
q73 -35 108.5 -68.5t35.5 -86.5q0 -153 -294 -153q-88 0 -147 14t-87 40t-38 53t-10 63v437q0 26 -13 34t-35 8l-32 -2v40l157 31h66z" />
    <glyph glyph-name="uni02AB" unicode="&#x2ab;" horiz-adv-x="689" 
d="M235 706v-233h414v-47l-260 -372v-5h85q60 0 90 24.5t41 95.5h47l-10 -169h-623v40q47 0 60 14t13 58v483q0 26 -13 34t-36 8l-31 -2v40l157 31h66zM488 422h-253v-363h3l250 359v4z" />
    <glyph glyph-name="uni02AC" unicode="&#x2ac;" horiz-adv-x="677" 
d="M662 336v-29q-20 0 -32 -9t-22 -33l-116 -272h-76l-69 188h-3l-84 -188h-76l-114 270q-12 29 -21.5 36.5t-33.5 7.5v29h198v-29q-34 0 -34 -14q0 -10 7 -29l57 -135l12 -40h6l15 41l50 111l-8 22q-11 30 -18.5 37t-31.5 7v29h182v-29q-34 0 -34 -14q0 -11 8 -29l50 -135
l13 -40h5l14 41l51 139q5 13 5 21q0 17 -47 17v29h147zM662 706v-29q-20 0 -32 -9t-22 -33l-116 -272h-76l-69 188h-3l-84 -188h-76l-114 270q-12 29 -21.5 36.5t-33.5 7.5v29h198v-29q-34 0 -34 -14q0 -10 7 -29l57 -135l12 -40h6l15 41l50 111l-8 22q-11 30 -18.5 37
t-31.5 7v29h182v-29q-34 0 -34 -14q0 -11 8 -29l50 -135l13 -40h5l14 41l51 139q5 13 5 21q0 17 -47 17v29h147z" />
    <glyph glyph-name="uni02AD" unicode="&#x2ad;" horiz-adv-x="459" 
d="M399 -6h-56v193h-227v-193h-56v300h339v-300zM399 357h-56v193h-227v-193h-56v300h339v-300z" />
    <glyph glyph-name="uni02AE" unicode="&#x2ae;" horiz-adv-x="713" 
d="M493 127v238q0 31 -12.5 40t-38.5 9l-26 -2v42l150 28h70v-606q0 -24 12 -32t36 -8l29 3v-41l-158 -31h-62v305h-4q-44 -45 -77.5 -64.5t-77.5 -19.5q-78 0 -118.5 48.5t-40.5 141.5v168q0 92 -51 92q-14 0 -23.5 -8t-20.5 -34q-13 -30 -24 -41t-31 -11q-23 0 -40.5 14.5
t-17.5 42.5q0 86 130 86q104 0 168 -67q31 -33 41.5 -65t11.5 -80v-49q0 -28 1 -44.5t5 -37.5t12 -32.5t23 -19.5t36 -8q46 0 98 43z" />
    <glyph glyph-name="uni02AF" unicode="&#x2af;" horiz-adv-x="718" 
d="M493 -10v82h-4q-44 -45 -77.5 -64.5t-77.5 -19.5q-78 0 -118.5 48.5t-40.5 141.5v168q0 92 -51 92q-14 0 -23.5 -8t-20.5 -34q-13 -30 -24 -41t-31 -11q-23 0 -40.5 14.5t-17.5 42.5q0 86 130 86q104 0 168 -67q31 -33 41.5 -65t11.5 -80v-49q0 -28 1 -44.5t5 -37.5
t12 -32.5t23 -19.5t36 -8q46 0 98 43v238q0 31 -12.5 40t-38.5 9l-26 -2v42l150 28h70v-557q0 -57 8 -80.5t31 -23.5q14 0 24.5 14.5t17 31.5t21 31.5t35.5 14.5t35 -15.5t14 -39.5q0 -48 -35.5 -70.5t-93.5 -22.5q-87 0 -143.5 57t-56.5 168z" />
    <glyph glyph-name="uni02B0" unicode="&#x2b0;" horiz-adv-x="528" 
d="M197 530v-192q0 -30 9.5 -40.5t48.5 -10.5v-35h-234v35q33 0 44.5 9t11.5 39v398q0 29 -36 29l-26 -4v37l128 25h54v-242h4q34 34 60 49.5t60 15.5q130 0 130 -155v-146q0 -32 11 -43.5t45 -11.5v-35h-228v35q35 0 43.5 10.5t8.5 41.5v113q0 27 -1.5 42.5t-6.5 33.5
t-18 26t-33 8q-35 0 -75 -32z" />
    <glyph glyph-name="uni02B1" unicode="&#x2b1;" horiz-adv-x="528" 
d="M77 651q0 82 52.5 130t138.5 48q118 0 118 -72q0 -24 -14.5 -36t-34.5 -12q-19 0 -29.5 9t-22.5 35q-10 22 -19.5 28.5t-22.5 6.5q-46 0 -46 -65v-145h4q34 34 60 49.5t60 15.5q130 0 130 -155v-146q0 -32 11 -43.5t45 -11.5v-35h-228v35q35 0 43.5 10.5t8.5 41.5v113
q0 27 -1.5 42.5t-6.5 33.5t-18 26t-33 8q-35 0 -75 -32v-192q0 -30 9.5 -40.5t48.5 -10.5v-35h-234v35q33 0 44.5 9t11.5 39v316z" />
    <glyph glyph-name="uni02B2" unicode="&#x2b2;" horiz-adv-x="246" 
d="M193 641v-391q0 -94 -48 -141.5t-124 -47.5q-113 0 -113 77q0 21 13 34t33 13q15 0 27 -8.5t17 -16t13 -22.5q15 -29 31 -29q21 0 26 25.5t5 97.5v311q0 24 -7.5 32t-26.5 8l-28 -1v36l122 23h60zM133 825q33 0 50.5 -17t17.5 -47q0 -31 -17.5 -48.5t-50.5 -17.5
q-31 0 -49.5 17.5t-18.5 47.5t18 47.5t50 17.5z" />
    <glyph glyph-name="uni02B3" unicode="&#x2b3;" horiz-adv-x="379" 
d="M199 641v-80h5q2 2 8.5 11.5t9 12.5t9 11.5t9 11.5t9 9.5t10.5 9.5l10 7.5t11 6t11.5 3t12.5 1.5q64 0 64 -68q0 -34 -15.5 -51t-36.5 -17q-24 0 -50 26q-12 10 -16 10q-16 0 -50 -34v-166q0 -35 16.5 -46.5t61.5 -11.5v-35h-257v35q38 0 48.5 9.5t10.5 42.5v199
q0 22 -6.5 32t-24.5 10l-28 -3v39l128 25h50z" />
    <glyph glyph-name="uni02B4" unicode="&#x2b4;" horiz-adv-x="379" 
d="M180 244v80h-5q-2 -2 -8.5 -11.5t-9 -12.5t-9 -11.5t-9 -11.5t-9 -9.5t-10.5 -9.5l-10 -7.5t-11 -6t-11.5 -3t-12.5 -1.5q-64 0 -64 68q0 34 15.5 51t36.5 17q24 0 50 -26q12 -10 16 -10q16 0 50 34v166q0 35 -16.5 46.5t-61.5 11.5v35h257v-35q-38 0 -48.5 -9.5
t-10.5 -42.5v-199q0 -22 6.5 -32t24.5 -10l28 3v-39l-128 -25h-50z" />
    <glyph glyph-name="uni02B5" unicode="&#x2b5;" horiz-adv-x="379" 
d="M299 546v-302q0 -65 47 -65q13 0 22.5 6.5t19.5 28.5q12 26 22.5 35t29.5 9q20 0 34.5 -12t14.5 -36q0 -72 -118 -72q-85 0 -138 46t-53 126v14h-5q-2 -2 -8.5 -11.5t-9 -12.5t-9 -11.5t-9 -11.5t-9 -9.5t-10.5 -9.5l-10 -7.5t-11 -6t-11.5 -3t-12.5 -1.5q-64 0 -64 68
q0 34 15.5 51t36.5 17q24 0 50 -26q12 -10 16 -10q16 0 50 34v166q0 35 -16.5 46.5t-61.5 11.5v35h257v-35q-38 0 -48.5 -9.5t-10.5 -42.5z" />
    <glyph glyph-name="uni02B6" unicode="&#x2b6;" horiz-adv-x="506" 
d="M427 349q0 -51 -41 -74t-102 -23h-263v33q35 0 45.5 9.5t10.5 35.5v220q0 35 -10 42.5t-46 7.5v33h236v-33q-40 0 -50 -7.5t-10 -41.5v-80h12q17 0 25 3.5t15 16.5q60 88 92 142h159v-33q-43 0 -66 -29q-48 -64 -67.5 -86.5t-34.5 -31.5v-3q95 -20 95 -101zM197 435v-145
q11 -1 35 -1q41 0 56.5 16t15.5 56t-19.5 56.5t-65.5 18.5z" />
    <glyph glyph-name="uni02B7" unicode="&#x2b7;" horiz-adv-x="727" 
d="M720 633v-35q-22 0 -35.5 -10t-24.5 -36l-130 -309h-81l-74 222h-6l-94 -222h-78l-128 308q-12 29 -24 38t-38 9v35h220v-35q-38 0 -38 -13t8 -31l66 -154l9 -44h6l12 45l58 126l-9 24q-11 32 -20 39.5t-37 7.5v35h205v-35q-38 0 -38 -13q0 -12 8 -31l58 -154l9 -44h8
l11 45l58 158q4 16 4 23q0 16 -52 16v35h167z" />
    <glyph glyph-name="uni02B8" unicode="&#x2b8;" horiz-adv-x="470" 
d="M469 633v-31q-23 0 -33.5 -8.5t-20.5 -30.5l-145 -325q-37 -85 -77 -123t-93 -38q-70 0 -70 55q0 41 42 41q15 0 37 -10q20 -9 35 -9q24 0 46.5 33.5t22.5 59.5q0 17 -35 84l-121 245q-12 26 -52 26v31h222v-32q-26 0 -35 -4t-9 -14q0 -11 12 -33l70 -146l12 -44h6
l70 212v-1q2 12 2 15q0 16 -40 16v31h154z" />
    <glyph glyph-name="uni02B9" unicode="&#x2b9;" horiz-adv-x="296" 
d="M50 403l71 252q8 29 23.5 46.5t45.5 17.5q26 0 40 -16t14 -37q0 -26 -17 -57l-124 -228z" />
    <glyph glyph-name="uni02BA" unicode="&#x2ba;" horiz-adv-x="506" 
d="M50 403l71 252q8 29 23.5 46.5t45.5 17.5q26 0 40 -16t14 -37q0 -26 -17 -57l-124 -228zM260 403l71 252q8 29 23.5 46.5t45.5 17.5q26 0 40 -16t14 -37q0 -26 -17 -57l-124 -228z" />
    <glyph glyph-name="uni02BB" unicode="&#x2bb;" horiz-adv-x="245" 
d="M189 719l14 -29q-37 -17 -55.5 -40.5t-18.5 -71.5q31 9 53.5 -6t22.5 -49q0 -27 -20 -48t-54 -21q-82 0 -82 90q0 42 14.5 74.5t40 52.5t43 29.5t42.5 18.5z" />
    <glyph glyph-name="uni02BC" unicode="&#x2bc;" horiz-adv-x="244" 
d="M65 454l-14 29q37 17 55.5 40.5t18.5 71.5q-31 -9 -53.5 6t-22.5 49q0 27 20 48t54 21q82 0 82 -90q0 -42 -14.5 -74.5t-40 -52.5t-43 -29.5t-42.5 -18.5z" />
    <glyph glyph-name="uni02BD" unicode="&#x2bd;" horiz-adv-x="244" 
d="M203 483l-14 -29q-21 8 -32.5 13t-35.5 20t-37 31t-24.5 44.5t-11.5 62.5q0 47 24.5 70t63.5 23q34 0 51.5 -20.5t17.5 -47.5q0 -34 -22.5 -49t-53.5 -6q0 -48 18.5 -71.5t55.5 -40.5z" />
    <glyph glyph-name="uni02BE" unicode="&#x2be;" horiz-adv-x="235" 
d="M30 718h52q53 0 88 -32t35 -89t-35 -90t-88 -33h-52v82h52q17 0 29 12t12 29t-12 28t-29 11h-52v82z" />
    <glyph glyph-name="uni02BF" unicode="&#x2bf;" horiz-adv-x="235" 
d="M153 718h52v-82h-52q-17 0 -29 -11t-12 -28t12 -29t29 -12h52v-82h-52q-53 0 -88 33t-35 90t35 89t88 32z" />
    <glyph glyph-name="uni02C0" unicode="&#x2c0;" horiz-adv-x="371" 
d="M189 346h-95v118q24 0 47 6t44.5 19.5t35 39t13.5 59.5q0 89 -59 89q-15 0 -26 -14t-17 -30.5t-19.5 -30.5t-32.5 -14q-24 0 -38 15t-14 38q0 44 45 63.5t96 19.5q89 0 133 -39t44 -107q0 -69 -48.5 -107.5t-108.5 -51.5v-73z" />
    <glyph glyph-name="uni02C1" unicode="&#x2c1;" horiz-adv-x="371" 
d="M277 346h-95v73q-60 13 -108.5 51.5t-48.5 107.5q0 68 44 107t133 39q51 0 96 -19.5t45 -63.5q0 -23 -14 -38t-38 -15q-19 0 -32.5 14t-20 30.5t-17.5 30.5t-25 14q-59 0 -59 -89q0 -34 13.5 -59.5t35 -39t44.5 -19.5t47 -6v-118z" />
    <glyph glyph-name="uni02C2" unicode="&#x2c2;" horiz-adv-x="356" 
d="M318 408l-282 170v45l282 172v-100l-168 -92l168 -98v-97z" />
    <glyph glyph-name="uni02C3" unicode="&#x2c3;" horiz-adv-x="356" 
d="M36 795l282 -170v-45l-282 -172v100l168 92l-168 98v97z" />
    <glyph glyph-name="uni02C4" unicode="&#x2c4;" horiz-adv-x="388" 
d="M388 476h-100l-94 164l-96 -164h-98l171 282h45z" />
    <glyph glyph-name="uni02C5" unicode="&#x2c5;" horiz-adv-x="388" 
d="M288 758h100l-172 -282h-45l-171 282h98l96 -164z" />
    <glyph glyph-name="circumflex" unicode="&#x2c6;" horiz-adv-x="342" 
d="M324 521h-58l-94 86l-95 -86h-59l107 153h93z" />
    <glyph glyph-name="caron" unicode="&#x2c7;" horiz-adv-x="342" 
d="M18 674h58l94 -86l95 86h59l-107 -153h-93z" />
    <glyph glyph-name="uni02C8" unicode="&#x2c8;" horiz-adv-x="316" 
d="M195 443h-73v303h73v-303z" />
    <glyph glyph-name="uni02C9" unicode="&#x2c9;" horiz-adv-x="350" 
d="M320 555h-290v75h290v-75z" />
    <glyph glyph-name="uni02CA" unicode="&#x2ca;" horiz-adv-x="222" 
d="M22 521l69 153h113v-32l-133 -121h-49z" />
    <glyph glyph-name="uni02CB" unicode="&#x2cb;" horiz-adv-x="222" 
d="M131 674l69 -153h-49l-133 121v32h113z" />
    <glyph glyph-name="uni02CC" unicode="&#x2cc;" horiz-adv-x="316" 
d="M195 -216h-73v303h73v-303z" />
    <glyph glyph-name="uni02CD" unicode="&#x2cd;" horiz-adv-x="374" 
d="M363 -179h-352v88h352v-88z" />
    <glyph glyph-name="uni02CE" unicode="&#x2ce;" horiz-adv-x="222" 
d="M131 -36l69 -153h-49l-133 121v32h113z" />
    <glyph glyph-name="uni02CF" unicode="&#x2cf;" horiz-adv-x="222" 
d="M22 -189l69 153h113v-32l-133 -121h-49z" />
    <glyph glyph-name="uni02D0" unicode="&#x2d0;" horiz-adv-x="373" 
d="M288 507l-68 -197h-68l-67 197h203zM288 23h-203l67 197h68z" />
    <glyph glyph-name="uni02D1" unicode="&#x2d1;" horiz-adv-x="373" 
d="M288 507l-68 -197h-68l-67 197h203z" />
    <glyph glyph-name="uni02D2" unicode="&#x2d2;" horiz-adv-x="373" 
d="M73 390h63q68 0 116 -48.5t48 -116.5t-48 -116t-116 -48h-63v88h63q32 0 54 22.5t22 53.5t-22 53.5t-54 22.5h-63v89z" />
    <glyph glyph-name="uni02D3" unicode="&#x2d3;" horiz-adv-x="373" 
d="M299 61h-62q-68 0 -116.5 48t-48.5 116t48.5 116.5t116.5 48.5h62v-89h-62q-31 0 -53.5 -22.5t-22.5 -53.5t22.5 -53.5t53.5 -22.5h62v-88z" />
    <glyph glyph-name="uni02D4" unicode="&#x2d4;" horiz-adv-x="373" 
d="M319 144h-267v73h97v151h73v-151h97v-73z" />
    <glyph glyph-name="uni02D5" unicode="&#x2d5;" horiz-adv-x="373" 
d="M319 295h-97v-151h-73v151h-97v73h267v-73z" />
    <glyph glyph-name="uni02D6" unicode="&#x2d6;" horiz-adv-x="373" 
d="M319 220h-89v-88h-79v88h-89v73h89v88h79v-88h89v-73z" />
    <glyph glyph-name="uni02D7" unicode="&#x2d7;" horiz-adv-x="373" 
d="M301 220h-229v73h229v-73z" />
    <glyph glyph-name="breve" unicode="&#x2d8;" horiz-adv-x="353" 
d="M292 687h40q-16 -158 -156 -158q-71 0 -112.5 40t-44.5 118h40q10 -44 38.5 -59.5t78.5 -15.5q49 0 75.5 15.5t40.5 59.5z" />
    <glyph glyph-name="dotaccent" unicode="&#x2d9;" horiz-adv-x="172" 
d="M166 615q0 -36 -21 -57.5t-59 -21.5t-59.5 21.5t-21.5 57.5q0 35 22 56t59 21q38 0 59 -21t21 -56z" />
    <glyph glyph-name="ring" unicode="&#x2da;" horiz-adv-x="265" 
d="M243 633q0 -50 -31 -77.5t-80 -27.5q-47 0 -79 28t-32 78q0 47 32 76t79 29q48 0 79.5 -29t31.5 -77zM178 634q0 24 -11.5 39t-34.5 15q-45 0 -45 -54t45 -54q46 0 46 54z" />
    <glyph glyph-name="ogonek" unicode="&#x2db;" horiz-adv-x="277" 
d="M271 -126l23 -28q-34 -34 -64 -50.5t-72 -16.5q-49 0 -81 23.5t-32 66.5q0 26 12.5 50t32.5 41.5t33.5 26.5t27.5 17h68q-4 -3 -15.5 -11l-16.5 -11.5t-14 -11t-13 -13.5t-9.5 -15t-7.5 -19.5t-2 -22.5q0 -55 57 -55q34 0 73 29z" />
    <glyph glyph-name="tilde" unicode="&#x2dc;" horiz-adv-x="381" 
d="M317 657h38q-12 -60 -37.5 -90.5t-70.5 -30.5q-31 0 -71 19.5t-60 19.5q-40 0 -52 -42h-39q9 52 37 86t69 34q33 0 72 -19.5t59 -19.5q42 0 55 43z" />
    <glyph glyph-name="hungarumlaut" unicode="&#x2dd;" horiz-adv-x="350" 
d="M2 521l59 153h113v-32l-123 -121h-49zM175 521l59 153h113v-32l-123 -121h-49z" />
    <glyph glyph-name="uni02DE" unicode="&#x2de;" horiz-adv-x="215" 
d="M-52 317v45l97 58l30 -25q-2 -12 -2 -19q0 -25 10.5 -41.5t31.5 -16.5q51 0 51 45q0 5 -2 17l30 5q5 -17 5 -35q0 -42 -23.5 -71.5t-75.5 -29.5q-42 0 -64.5 31t-22.5 72l-2 1z" />
    <glyph glyph-name="uni02DF" unicode="&#x2df;" horiz-adv-x="334" 
d="M310 703l-85 -87l83 -83l-56 -61l-85 85l-84 -86l-55 60l83 84l-88 89l61 57l84 -86l85 86z" />
    <glyph glyph-name="uni02E0" unicode="&#x2e0;" horiz-adv-x="474" 
d="M469 633v-33q-24 0 -34.5 -11t-27.5 -48l-112 -239l18 -41q29 -67 29 -117q0 -39 -29 -63.5t-89 -24.5q-46 0 -65 21t-19 50q0 39 51 139l-117 266q-18 42 -32.5 55t-40.5 13v33h240v-33q-47 0 -47 -23q-1 -9 8 -33l53 -130l16 -51h9l18 53l59 132q5 12 5 29q0 23 -45 23
v33h152zM225 216h-3q-29 -58 -29 -91q0 -15 9 -24t24 -9q31 0 31 33q0 14 -5.5 31t-15.5 37t-11 23z" />
    <glyph glyph-name="uni02E1" unicode="&#x2e1;" horiz-adv-x="290" 
d="M269 287v-35h-243v35q38 0 48.5 11t10.5 44v389q0 31 -37 31l-27 -3v36l127 25h57v-478q0 -34 11 -44.5t53 -10.5z" />
    <glyph glyph-name="uni02E2" unicode="&#x2e2;" horiz-adv-x="370" 
d="M37 400h38q12 -59 35 -87t64 -28q59 0 59 41q0 19 -18 35t-72 41q-58 28 -83 55t-25 77q0 52 36.5 80.5t103.5 28.5q46 0 92 -26h3l9 19h37l3 -137h-38q-28 103 -96 103q-49 0 -49 -39q0 -24 19.5 -38t65.5 -33q63 -26 92.5 -53t29.5 -77q0 -120 -163 -120q-41 0 -90 22
h-4l-17 -22h-29z" />
    <glyph glyph-name="uni02E3" unicode="&#x2e3;" horiz-adv-x="457" 
d="M451 252h-223v35q37 0 37 19q0 8 -8 21l-40 56l-11 21h-4l-24.5 -32l-24.5 -32q-23 -29 -23 -41t32 -12v-35h-153v35q21 0 32.5 8t34.5 33l103 108l-85 115q-21 27 -39 38t-43 11v33h223v-33q-32 0 -32 -14q0 -7 16 -31l19 -30l14 -30h6l33 42q22 28 22 48q0 15 -32 15
v33h153v-33q-20 0 -33 -8t-30 -27l-90 -99l50 -65l50 -65q15 -20 22 -28t19.5 -14.5t28.5 -6.5v-35z" />
    <glyph glyph-name="uni02E4" unicode="&#x2e4;" horiz-adv-x="407" 
d="M187 366v136q-157 39 -157 173q0 73 52.5 113.5t139.5 40.5q67 0 112 -25.5t45 -67.5q0 -53 -53 -53q-26 0 -38 17.5t-13.5 38.5t-14 38.5t-38.5 17.5q-42 0 -57 -26.5t-15 -88.5q0 -44 13 -75t36 -48t46 -25t52 -12l10 -20v-134q0 -54 8.5 -67.5t51.5 -13.5v-33h-250v33
q49 0 59.5 13.5t10.5 67.5z" />
    <glyph glyph-name="uni02E5" unicode="&#x2e5;" horiz-adv-x="455" 
d="M414 -16h-83v626h-282v84h365v-710z" />
    <glyph glyph-name="uni02E6" unicode="&#x2e6;" horiz-adv-x="446" 
d="M406 -16h-84v441h-281v83h281v186h84v-710z" />
    <glyph glyph-name="uni02E7" unicode="&#x2e7;" horiz-adv-x="446" 
d="M406 -16h-84v313h-281v83h281v314h84v-710z" />
    <glyph glyph-name="uni02E8" unicode="&#x2e8;" horiz-adv-x="446" 
d="M406 -16h-84v185h-281v83h281v442h84v-710z" />
    <glyph glyph-name="uni02E9" unicode="&#x2e9;" horiz-adv-x="446" 
d="M406 -16h-365v83h281v627h84v-710z" />
    <glyph glyph-name="uni02EC" unicode="&#x2ec;" horiz-adv-x="373" 
d="M363 87l-155 -254h-45l-155 254h110l70 -123h5l63 123h107z" />
    <glyph glyph-name="uni02ED" unicode="&#x2ed;" horiz-adv-x="472" 
d="M434 649h-396v88h396v-88zM434 493h-396v87h396v-87z" />
    <glyph glyph-name="uni02F7" unicode="&#x2f7;" horiz-adv-x="381" 
d="M317 -45h38q-12 -60 -37.5 -90.5t-70.5 -30.5q-31 0 -71 19.5t-60 19.5q-40 0 -52 -42h-39q9 52 37 86t69 34q33 0 72 -19.5t59 -19.5q42 0 55 43z" />
    <glyph glyph-name="uni0300" unicode="&#x300;" 
d="M-210 684l69 -163h-49l-133 131v32h113z" />
    <glyph glyph-name="uni0301" unicode="&#x301;" 
d="M-259 521l69 163h113v-32l-133 -131h-49z" />
    <glyph glyph-name="uni0302" unicode="&#x302;" 
d="M-47 521h-58l-94 91l-95 -91h-59l107 163h93z" />
    <glyph glyph-name="uni0303" unicode="&#x303;" 
d="M-68 657h38q-12 -60 -37.5 -90.5t-70.5 -30.5q-31 0 -71 19.5t-60 19.5q-40 0 -52 -42h-39q9 52 37 86t69 34q33 0 72 -19.5t59 -19.5q42 0 55 43z" />
    <glyph glyph-name="uni0304" unicode="&#x304;" 
d="M-55 555h-290v75h290v-75z" />
    <glyph glyph-name="uni0305" unicode="&#x305;" 
d="M0 555h-400v75h400v-75z" />
    <glyph glyph-name="uni0306" unicode="&#x306;" 
d="M-84 687h40q-16 -158 -156 -158q-71 0 -112.5 40t-44.5 118h40q10 -44 38.5 -59.5t78.5 -15.5q49 0 75.5 15.5t40.5 59.5z" />
    <glyph glyph-name="uni0307" unicode="&#x307;" 
d="M-120 615q0 -36 -21 -57.5t-59 -21.5t-59.5 21.5t-21.5 57.5q0 35 22 56t59 21q38 0 59 -21t21 -56z" />
    <glyph glyph-name="uni0308" unicode="&#x308;" 
d="M-313 697q36 0 56 -19.5t20 -52.5q0 -34 -20 -54t-56 -20q-35 0 -55 20t-20 53q0 34 20 53.5t55 19.5zM-89 698q36 0 56 -19.5t20 -52.5q0 -34 -20 -54t-56 -20q-35 0 -55 20t-20 53t20 53t55 20z" />
    <glyph glyph-name="uni0309" unicode="&#x309;" 
d="M-174 521h-63v56q35 1 49.5 17t14.5 56q0 27 -6.5 37.5t-21.5 10.5q-21 0 -34 -25t-33 -25q-16 0 -25 10t-9 24q0 28 31 43t74 15q54 0 83.5 -25.5t29.5 -67.5q0 -43 -28 -66t-62 -29v-31z" />
    <glyph glyph-name="uni030A" unicode="&#x30a;" 
d="M-89 633q0 -50 -31 -77.5t-80 -27.5q-47 0 -79 28t-32 78q0 47 32 76t79 29q48 0 79.5 -29t31.5 -77zM-154 634q0 24 -11.5 39t-34.5 15q-45 0 -45 -54t45 -54q46 0 46 54z" />
    <glyph glyph-name="uni030B" unicode="&#x30b;" 
d="M-335 521l61 163h113v-32l-125 -131h-49zM-162 521l61 163h113v-32l-125 -131h-49z" />
    <glyph glyph-name="uni030C" unicode="&#x30c;" 
d="M-353 674h58l94 -86l95 86h59l-107 -153h-93z" />
    <glyph glyph-name="uni030D" unicode="&#x30d;" 
d="M-151 526h-98v205h98v-205z" />
    <glyph glyph-name="uni030E" unicode="&#x30e;" 
d="M-233 526h-98v205h98v-205zM-69 526h-98v205h98v-205z" />
    <glyph glyph-name="uni030F" unicode="&#x30f;" 
d="M-126 684l61 -163h-49l-125 131v32h113zM-299 684l61 -163h-49l-125 131v32h113z" />
    <glyph glyph-name="uni0310" unicode="&#x310;" 
d="M-84 687h40q-16 -158 -156 -158q-71 0 -112.5 40t-44.5 118h40q10 -44 38.5 -59.5t78.5 -15.5q49 0 75.5 15.5t40.5 59.5zM-127 737q0 -33 -18.5 -52.5t-53.5 -19.5t-54.5 19.5t-19.5 52.5q0 32 20 51t54 19t53 -19t19 -51z" />
    <glyph glyph-name="uni0311" unicode="&#x311;" 
d="M-317 529h-40q16 158 156 158q71 0 112.5 -40t44.5 -118h-40q-10 44 -38.5 59.5t-78.5 15.5q-49 0 -75.5 -15.5t-40.5 -59.5z" />
    <glyph glyph-name="uni0312" unicode="&#x312;" 
d="M-152 786l15 -32q-83 -33 -83 -108q18 7 35 7q27 0 43.5 -16.5t16.5 -44.5q0 -31 -19 -50.5t-55 -19.5q-42 0 -65 27.5t-23 75.5q0 114 135 161z" />
    <glyph glyph-name="uni0313" unicode="&#x313;" 
d="M-248 513l-15 27q83 33 83 108q-18 -7 -35 -7q-27 0 -43.5 16.5t-16.5 44.5q0 31 19 50.5t55 19.5q42 0 65 -27.5t23 -75.5q0 -37 -13 -65.5t-37 -46.5t-42 -26.5t-43 -17.5z" />
    <glyph glyph-name="uni0314" unicode="&#x314;" 
d="M-137 540l-15 -27q-25 9 -43 17.5t-42 26.5t-37 46.5t-13 65.5q0 48 23 75.5t65 27.5q36 0 55 -19.5t19 -50.5q0 -28 -16.5 -44.5t-43.5 -16.5q-17 0 -35 7q0 -75 83 -108z" />
    <glyph glyph-name="uni0315" unicode="&#x315;" 
d="M-252 498l12 202h105v-35q-5 -72 -69 -174z" />
    <glyph glyph-name="uni0316" unicode="&#x316;" 
d="M-210 -56l69 -163h-49l-133 131v32h113z" />
    <glyph glyph-name="uni0317" unicode="&#x317;" 
d="M-259 -219l69 163h113v-32l-133 -131h-49z" />
    </font>
</defs>
</svg>
